Possession (1981) | 720p & 1080p & 2160p BluRay x265-BvS

Mark is a Intelligence service who returns home to Berlin from a mysterious espionage mission to find that his wife, Anna, wants a divorce. She won’t say why, but insists it’s not because she’s found someone else. Mark reluctantly turns the apartment and custody of their young son, Bob, over to her. After recovering from a destructive bender, he pays a visit to their apartment to find Bob alone, unkempt, and neglected. When Anna returns, he refuses to leave her alone with the child but attempts to make amends. He stays at the apartment to care for Bob but Anna leaves in the middle of the night.

Links: HOMEPAGE – TV.com

Note: In English with English/French Selectable Subtitles

DOWNLOAD

VIP (GOOGLE DRIVE)

This content is reserved for registered users. BUY A VIP MEMBERSHIP HERE and login to be able to see it.

FREE

  • Possession (1981) (2160p BluRay x265 HEVC 10bit AAC 2.0 Tigole) (ONLY VIP)

NFO

WEBRip.x264-ION10

 

720p.x265-BvS

 

Possession (1981) (2160p BluRay x265 HEVC 10bit AAC 2.0 Tigole)

General
Unique ID : 96523464660937863358750985351730336807 (0x489DBE3B51E719FE7652E142CDA09427)
Complete name : Possession (1981) (2160p BluRay x265 HEVC 10bit AAC 2.0 Tigole).mkv
Format : Matroska
Format version : Version 4
File size : 17.5 GiB
Duration : 2 h 3 min
Overall bit rate : 20.3 Mb/s
Encoded date : UTC 2021-03-07 08:10:29
Writing application : mkvmerge v54.0.0 (‘F Maj Pixie’) 64-bit
Writing library : libebml v1.4.2 + libmatroska v1.6.3

Video
ID : 1
Format : HEVC
Format/Info : High Efficiency Video Coding
Format profile : Main 1[email protected]@Main
Codec ID : V_MPEGH/ISO/HEVC
Duration : 2 h 3 min
Bit rate : 20.0 Mb/s
Width : 3 604 pixels
Height : 2 160 pixels
Display aspect ratio : 5:3
Frame rate mode : Constant
Frame rate : 24.000 FPS
Color space : YUV
Chroma subsampling : 4:2:0
Bit depth : 10 bits
Bits/(Pixel*Frame) : 0.107
Stream size : 17.3 GiB (99%)
Writing library : x265M – 3.4+35-772bb4c84:[Windows][GCC 10.2.0][64 bit] 10bit
Encoding settings : cpuid=1111039 / frame-threads=3 / numa-pools=8 / wpp / no-pmode / no-pme / no-psnr / no-ssim / log-level=2 / input-csp=1 / input-res=3604×2160 / interlace=0 / total-frames=178543 / level-idc=0 / high-tier=1 / uhd-bd=0 / ref=4 / no-allow-non-conformance / no-repeat-headers / annexb / aud / no-hrd / info / hash=0 / no-temporal-layers / open-gop / min-keyint=24 / keyint=250 / gop-lookahead=0 / bframes=8 / b-adapt=2 / b-pyramid / bframe-bias=0 / rc-lookahead=20 / lookahead-slices=4 / scenecut=40 / hist-scenecut=0 / radl=0 / no-splice / no-intra-refresh / ctu=64 / min-cu-size=8 / rect / no-amp / max-tu-size=32 / tu-inter-depth=1 / tu-intra-depth=1 / limit-tu=0 / rdoq-level=2 / dynamic-rd=0.00 / no-ssim-rd / signhide / no-tskip / nr-intra=0 / nr-inter=0 / no-constrained-intra / strong-intra-smoothing / max-merge=3 / limit-refs=3 / limit-modes / me=3 / subme=3 / merange=57 / temporal-mvp / no-frame-dup / no-hme / weightp / no-weightb / no-analyze-src-pics / deblock=0:0 / no-sao / no-sao-non-deblock / rd=4 / selective-sao=0 / no-early-skip / rskip / no-fast-intra / no-tskip-fast / no-cu-lossless / no-b-intra / no-splitrd-skip / rdpenalty=0 / psy-rd=2.00 / psy-rdoq=1.00 / no-rd-refine / no-lossless / cbqpoffs=0 / crqpoffs=0 / rc=abr / bitrate=20000 / qcomp=0.60 / qpstep=4 / stats-write=0 / stats-read=2 / cplxblur=20.0 / qblur=0.5 / ipratio=1.40 / pbratio=1.30 / aq-mode=3 / aq-strength=1.00 / cutree / zone-count=0 / no-strict-cbr / qg-size=32 / no-rc-grain / qpmax=69 / qpmin=0 / no-const-vbv / sar=0 / overscan=0 / videoformat=5 / range=0 / colorprim=2 / transfer=2 / colormatrix=2 / chromaloc=0 / display-window=0 / cll=0,0 / min-luma=0 / max-luma=1023 / log2-max-poc-lsb=8 / vui-timing-info / vui-hrd-info / slices=1 / no-opt-qp-pps / no-opt-ref-list-length-pps / no-multi-pass-opt-rps / scenecut-bias=0.05 / hist-threshold=0.03 / no-opt-cu-delta-qp / aq-motion / no-hdr10 / no-hdr10-opt / no-dhdr10-opt / no-idr-recovery-sei / analysis-reuse-level=0 / analysis-save-reuse-level=0 / analysis-load-reuse-level=0 / scale-factor=0 / refine-intra=0 / refine-inter=0 / refine-mv=1 / refine-ctu-distortion=0 / no-limit-sao / ctu-info=0 / no-lowpass-dct / refine-analysis-type=0 / copy-pic=1 / max-ausize-factor=1.0 / no-dynamic-refine / no-single-sei / no-hevc-aq / no-svt / no-field / qp-adaptation-range=1.00 / scenecut-aware-qp=0conformance-window-offsets / right=0 / bottom=0 / decoder-max-rate=0 / no-vbv-live-multi-pass
Default : Yes
Forced : No

Audio #1
ID : 2
Format : AAC LC
Format/Info : Advanced Audio Codec Low Complexity
Codec ID : A_AAC-2
Duration : 2 h 3 min
Bit rate : 88.6 kb/s
Channel(s) : 2 channels
Channel layout : L R
Sampling rate : 48.0 kHz
Frame rate : 46.875 FPS (1024 SPF)
Compression mode : Lossy
Delay relative to video : 20 ms
Stream size : 78.5 MiB (0%)
Language : English
Default : Yes
Forced : No

Audio #2
ID : 3
Format : AAC LC SBR
Format/Info : Advanced Audio Codec Low Complexity with Spectral Band Replication
Commercial name : HE-AAC
Format settings : Explicit
Codec ID : A_AAC-2
Duration : 2 h 3 min
Bit rate : 66.2 kb/s
Channel(s) : 2 channels
Channel layout : L R
Sampling rate : 48.0 kHz
Frame rate : 23.438 FPS (2048 SPF)
Compression mode : Lossy
Delay relative to video : 40 ms
Stream size : 58.3 MiB (0%)
Title : Commentary
Language : English
Default : No
Forced : No

Audio #3
ID : 4
Format : AAC LC
Format/Info : Advanced Audio Codec Low Complexity
Codec ID : A_AAC-2
Duration : 2 h 3 min
Bit rate : 101 kb/s
Channel(s) : 2 channels
Channel layout : L R
Sampling rate : 48.0 kHz
Frame rate : 46.875 FPS (1024 SPF)
Compression mode : Lossy
Delay relative to video : 20 ms
Stream size : 90.0 MiB (1%)
Title : Isolated Score and Effects
Language : English
Default : No
Forced : No

Text #1
ID : 5
Format : VobSub
Muxing mode : zlib
Codec ID : S_VOBSUB
Codec ID/Info : Picture based subtitle format used on DVDs
Duration : 2 h 0 min
Bit rate : 7 079 b/s
Count of elements : 1234
Stream size : 6.10 MiB (0%)
Language : English
Default : No
Forced : No

Text #2
ID : 6
Format : VobSub
Muxing mode : zlib
Codec ID : S_VOBSUB
Codec ID/Info : Picture based subtitle format used on DVDs
Duration : 2 h 1 min
Bit rate : 5 666 b/s
Count of elements : 1064
Stream size : 4.92 MiB (0%)
Language : French
Default : No
Forced : No

Menu
00:00:00.000 : en:Chapter 01
00:04:32.166 : en:Chapter 02
00:11:12.291 : en:Chapter 03
00:17:06.916 : en:Chapter 04
00:23:09.125 : en:Chapter 05
00:27:11.583 : en:Chapter 06
00:32:55.916 : en:Chapter 07
00:41:45.291 : en:Chapter 08
00:49:17.291 : en:Chapter 09
00:52:59.541 : en:Chapter 10
01:00:13.958 : en:Chapter 11
01:05:06.666 : en:Chapter 12
01:10:17.333 : en:Chapter 13
01:14:57.333 : en:Chapter 14
01:20:11.916 : en:Chapter 15
01:21:38.625 : en:Chapter 16
01:27:43.958 : en:Chapter 17
01:36:18.500 : en:Chapter 18
01:39:49.791 : en:Chapter 19
01:45:43.916 : en:Chapter 20
01:48:20.708 : en:Chapter 21
01:51:37.458 : en:Chapter 22
01:55:46.916 : en:Chapter 23
02:01:02.000 : en:Chapter 24
02:02:43.166 : en:Chapter 25

Leave a Reply

Your email address will not be published. Required fields are marked *