Pans Labyrinth (2006) | 720p & 1080p & 2160p BluRay x265-BvS

Pans Labyrinth (2006)

It’s 1944 and the Allies have invaded Nazi-held Europe. In Spain, a troop of soldiers are sent to a remote forest to flush out the rebels. They are led by Capitan Vidal, a murdering sadist, and with him are his new wife Carmen and her daughter from a previous marriage, 11-year-old Ofelia. Ofelia witnesses her stepfather’s sadistic brutality and is drawn into Pan’s Labyrinth, a magical world of mythical beings.

Links: iMDB | Trailer

Note: In English with English Selectable Subtitles

DOWNLOAD

VIP

This content is reserved for registered users. Sign up here o login to be able to see it. Buy your VIP membership

FREE

  • Pans.Labyrinth.2006.2160p.BluRay.DV.HYBRID.REMUX.DTS-HD.MA.7.1.HEVC-AjA – 50GB (ONLY VIP)

NFO

Pans.Labyrinth.2006.2160p.BluRay.DV.HYBRID.REMUX.DTS-HD.MA.7.1.HEVC-AjA

General
Unique ID : 125943523232156123356936631953001212416 (0x5EBFD71BE5F55FBF856A4FEA55DAEA00)
Complete name : Pans.Labyrinth.2006.2160p.BluRay.DV.HYBRID.REMUX.DTS-HD.MA.7.1.HEVC-AjA.mkv
Format : Matroska
Format version : Version 4
File size : 50.8 GiB
Duration : 1 h 59 min
Overall bit rate mode : Variable
Overall bit rate : 61.0 Mb/s
Movie name : Pan’s Labyrinth 4K
Encoded date : UTC 2022-05-04 05:55:47
Writing application : mkvmerge v66.0.0 (‘Josie’) 64-bit
Writing library : libebml v1.4.2 + libmatroska v1.6.4

Video
ID : 1
Format : HEVC
Format/Info : High Efficiency Video Coding
Format profile : Main [email protected]@High
HDR format : Dolby Vision, Version 1.0, dvhe.08.06, BL+RPU, HDR10 compatible / SMPTE ST 2086, HDR10 compatible
Codec ID : V_MPEGH/ISO/HEVC
Duration : 1 h 59 min
Bit rate : 55.6 Mb/s
Width : 3 840 pixels
Height : 2 160 pixels
Display aspect ratio : 16:9
Frame rate mode : Constant
Frame rate : 23.976 (24000/1001) FPS
Color space : YUV
Chroma subsampling : 4:2:0 (Type 2)
Bit depth : 10 bits
Bits/(Pixel*Frame) : 0.280
Stream size : 46.3 GiB (91%)
Writing library : ATEME Titan File 3.9.0 (4.9.0.0)
Default : Yes
Forced : No
Color range : Limited
Color primaries : BT.2020
Transfer characteristics : PQ
Matrix coefficients : BT.2020 non-constant
Mastering display color primaries : Display P3
Mastering display luminance : min: 0.0050 cd/m2, max: 4000 cd/m2
Maximum Content Light Level : 761 cd/m2
Maximum Frame-Average Light Level : 46 cd/m2

Audio #1
ID : 2
Format : DTS XLL
Format/Info : Digital Theater Systems
Commercial name : DTS-HD Master Audio
Codec ID : A_DTS
Duration : 1 h 59 min
Bit rate mode : Variable
Bit rate : 5 175 kb/s
Channel(s) : 8 channels
Channel layout : C L R LFE Lb Rb Lss Rss
Sampling rate : 48.0 kHz
Frame rate : 93.750 FPS (512 SPF)
Bit depth : 24 bits
Compression mode : Lossless
Stream size : 4.31 GiB (8%)
Title : DTS-HD MA 7.1
Language : Spanish
Default : Yes
Forced : No

Audio #2
ID : 3
Format : AC-3
Format/Info : Audio Coding 3
Commercial name : Dolby Digital
Format settings : Dolby Surround
Codec ID : A_AC3
Duration : 1 h 59 min
Bit rate mode : Constant
Bit rate : 192 kb/s
Channel(s) : 2 channels
Channel layout : L R
Sampling rate : 48.0 kHz
Frame rate : 31.250 FPS (1536 SPF)
Compression mode : Lossy
Stream size : 164 MiB (0%)
Title : Commentary by Writer/Director Guillermo del Toro
Language : English
Service kind : Complete Main
Default : No
Forced : No

Text #1
ID : 4
Format : PGS
Muxing mode : zlib
Codec ID : S_HDMV/PGS
Codec ID/Info : Picture based subtitle format used on BDs/HD-DVDs
Duration : 1 h 51 min
Bit rate : 15.8 kb/s
Count of elements : 1774
Stream size : 12.6 MiB (0%)
Title : English
Language : English
Default : No
Forced : No

Text #2
ID : 5
Format : PGS
Muxing mode : zlib
Codec ID : S_HDMV/PGS
Codec ID/Info : Picture based subtitle format used on BDs/HD-DVDs
Duration : 1 h 51 min
Bit rate : 26.9 kb/s
Count of elements : 1738
Stream size : 21.4 MiB (0%)
Title : English (Criterion Collection)
Language : English
Default : No
Forced : No

Text #3
ID : 6
Format : PGS
Muxing mode : zlib
Codec ID : S_HDMV/PGS
Codec ID/Info : Picture based subtitle format used on BDs/HD-DVDs
Duration : 1 h 51 min
Bit rate : 13.6 kb/s
Count of elements : 1470
Stream size : 10.9 MiB (0%)
Title : Danish
Language : Danish
Default : No
Forced : No

Text #4
ID : 7
Format : PGS
Muxing mode : zlib
Codec ID : S_HDMV/PGS
Codec ID/Info : Picture based subtitle format used on BDs/HD-DVDs
Duration : 1 h 58 min
Bit rate : 13.5 kb/s
Count of elements : 1534
Stream size : 11.4 MiB (0%)
Title : Finnish
Language : Finnish
Default : No
Forced : No

Text #5
ID : 8
Format : PGS
Muxing mode : zlib
Codec ID : S_HDMV/PGS
Codec ID/Info : Picture based subtitle format used on BDs/HD-DVDs
Duration : 1 h 51 min
Bit rate : 18.7 kb/s
Count of elements : 1624
Stream size : 14.9 MiB (0%)
Title : German
Language : German
Default : No
Forced : No

Text #6
ID : 9
Format : PGS
Muxing mode : zlib
Codec ID : S_HDMV/PGS
Codec ID/Info : Picture based subtitle format used on BDs/HD-DVDs
Duration : 1 h 51 min
Bit rate : 12.5 kb/s
Count of elements : 1372
Stream size : 9.94 MiB (0%)
Title : Norwegian
Language : Norwegian
Default : No
Forced : No

Text #7
ID : 10
Format : PGS
Muxing mode : zlib
Codec ID : S_HDMV/PGS
Codec ID/Info : Picture based subtitle format used on BDs/HD-DVDs
Duration : 1 h 51 min
Bit rate : 20.9 kb/s
Count of elements : 1750
Stream size : 16.6 MiB (0%)
Title : Russian
Language : Russian
Default : No
Forced : No

Text #8
ID : 11
Format : PGS
Muxing mode : zlib
Codec ID : S_HDMV/PGS
Codec ID/Info : Picture based subtitle format used on BDs/HD-DVDs
Duration : 1 h 57 min
Bit rate : 16.6 kb/s
Count of elements : 1768
Stream size : 13.9 MiB (0%)
Title : Spanish (Latin American)
Language : Spanish
Default : No
Forced : No

Text #9
ID : 12
Format : PGS
Muxing mode : zlib
Codec ID : S_HDMV/PGS
Codec ID/Info : Picture based subtitle format used on BDs/HD-DVDs
Duration : 1 h 51 min
Bit rate : 13.0 kb/s
Count of elements : 1384
Stream size : 10.4 MiB (0%)
Title : Swedish
Language : Swedish
Default : No
Forced : No

Text #10
ID : 13
Format : PGS
Muxing mode : zlib
Codec ID : S_HDMV/PGS
Codec ID/Info : Picture based subtitle format used on BDs/HD-DVDs
Duration : 1 h 52 min
Bit rate : 49.4 kb/s
Count of elements : 3012
Stream size : 39.7 MiB (0%)
Title : German (Commentary)
Language : German
Default : No
Forced : No

Menu
00:00:00.000 : en:The dreaming princess
00:05:51.476 : en:Captain Vidal
00:09:31.696 : en:Hidden agendas
00:11:30.398 : en:The magic rose
00:14:32.830 : en:Father and sons
00:18:10.256 : en:The faun
00:24:52.449 : en:A dandy and a dress
00:31:12.996 : en:The giant toad
00:38:34.062 : en:”A new, clean Spain”
00:42:56.949 : en:Two more tasks
00:46:17.441 : en:Bread and blood
00:48:47.133 : en:Lullaby
00:52:11.003 : en:Bravery
00:55:38.627 : en:The Pale Man
01:02:36.586 : en:Reassurance
01:04:40.418 : en:Mandrake for Mother
01:07:57.824 : en:Surrounded
01:12:56.664 : en:”Count to three”
01:16:45.017 : en:Failure
01:21:21.543 : en:A cruel world
01:26:58.463 : en:Suspicions
01:31:28.692 : en:”She’s just a woman”
01:36:27.240 : en:Last chance
01:41:11.732 : en:Dwindling numbers
01:41:50.021 : en:Spotted
01:43:58.649 : en:Blood of an innocent
01:52:19.733 : en:End credits

 

(He/Him) He's BvSRips. I dedicate myself to sharing files on this blog for free. But it is difficult to maintain the links online for a long time, they are denounced and deleted, reuploading costs more work, that is why a section for VIP users was created, where they can download all the files published 100% in MEGA, as premium, without spend more. I would greatly appreciate your collaboration so that this blog remains online for a longer time.

BUY VIP HERE

Leave a Reply

Your email address will not be published. Required fields are marked *