| 720p & 1080p & 2160p BluRay x265-BvS

On Her Majestys Secret Service (1969)

James Bond woos a mob boss’ daughter and goes undercover to uncover the true reason for Ernst Stavro Blofeld’s allergy research in the Swiss Alps involving beautiful women from around the world.

Links: IMDB  – Trailer

Note: In English with English Selectable Subtitles

DOWNLOAD

VIP

This content is reserved for registered users. Sign up here o login to be able to see it. Buy your VIP membership

FREE

  • On.Her.Majestys.Secret.Service.1969.2160p.WEB-DL.DTS-HD.MA.5.1.HEVC-AjA – 25.20GB (MEGA FOLDER VIP)

NFO

On.Her.Majestys.Secret.Service.1969.2160p.WEB-DL.DTS-HD.MA.5.1.HEVC-AjA

General
Unique ID : 206030160635882547691910592342881374039 (0x9AFFF7305A5404019F6205DCF96E8F57)
Complete name : On.Her.Majestys.Secret.Service.1969.2160p.WEB-DL.DTS-HD.MA.5.1.HEVC-AjA.mkv
Format : Matroska
Format version : Version 4
File size : 25.3 GiB
Duration : 2 h 22 min
Overall bit rate mode : Variable
Overall bit rate : 25.4 Mb/s
Movie name : On Her Majestys Secret Service (1969)
Encoded date : UTC 2022-05-05 21:22:37
Writing application : mkvmerge v66.0.0 (‘Josie’) 64-bit
Writing library : libebml v1.4.2 + libmatroska v1.6.4

Video
ID : 1
Format : HEVC
Format/Info : High Efficiency Video Coding
Format profile : Main [email protected]@High
Codec ID : V_MPEGH/ISO/HEVC
Duration : 2 h 22 min
Bit rate : 20.7 Mb/s
Width : 3 840 pixels
Height : 1 630 pixels
Display aspect ratio : 2.35:1
Frame rate mode : Constant
Frame rate : 23.976 (23976/1000) FPS
Color space : YUV
Chroma subsampling : 4:2:0
Bit depth : 10 bits
Bits/(Pixel*Frame) : 0.138
Stream size : 20.6 GiB (81%)
Default : Yes
Forced : No
Color range : Limited
Color primaries : BT.709
Transfer characteristics : BT.709
Matrix coefficients : BT.709

Audio #1
ID : 2
Format : DTS XLL
Format/Info : Digital Theater Systems
Commercial name : DTS-HD Master Audio
Codec ID : A_DTS
Duration : 2 h 22 min
Bit rate mode : Variable
Bit rate : 4 163 kb/s
Channel(s) : 6 channels
Channel layout : C L R Ls Rs LFE
Sampling rate : 48.0 kHz
Frame rate : 93.750 FPS (512 SPF)
Bit depth : 24 bits
Compression mode : Lossless
Delay relative to video : 3 s 962 ms
Stream size : 4.14 GiB (16%)
Language : English
Default : Yes
Forced : No

Audio #2
ID : 3
Format : AC-3
Format/Info : Audio Coding 3
Commercial name : Dolby Digital
Codec ID : A_AC3
Duration : 2 h 22 min
Bit rate mode : Constant
Bit rate : 384 kb/s
Channel(s) : 6 channels
Channel layout : L R C LFE Ls Rs
Sampling rate : 48.0 kHz
Frame rate : 31.250 FPS (1536 SPF)
Compression mode : Lossy
Stream size : 391 MiB (2%)
Title : British
Language : English
Service kind : Complete Main
Default : Yes
Forced : No

Audio #3
ID : 4
Format : AC-3
Format/Info : Audio Coding 3
Commercial name : Dolby Digital
Codec ID : A_AC3
Duration : 2 h 22 min
Bit rate mode : Constant
Bit rate : 224 kb/s
Channel(s) : 2 channels
Channel layout : L R
Sampling rate : 48.0 kHz
Frame rate : 31.250 FPS (1536 SPF)
Compression mode : Lossy
Delay relative to video : 3 s 962 ms
Stream size : 228 MiB (1%)
Title : Commentary with Director Peter Hunt and cast and crew
Language : English
Service kind : Complete Main
Default : No
Forced : No

Text #1
ID : 5
Format : UTF-8
Codec ID : S_TEXT/UTF8
Codec ID/Info : UTF-8 Plain Text
Duration : 2 h 19 min
Bit rate : 41 b/s
Count of elements : 1065
Stream size : 42.4 KiB (0%)
Language : English
Default : No
Forced : No

Text #2
ID : 6
Format : UTF-8
Codec ID : S_TEXT/UTF8
Codec ID/Info : UTF-8 Plain Text
Duration : 2 h 21 min
Bit rate : 41 b/s
Count of elements : 1116
Stream size : 43.4 KiB (0%)
Title : Latin American
Language : Spanish
Default : No
Forced : No

Text #3
ID : 7
Format : UTF-8
Codec ID : S_TEXT/UTF8
Codec ID/Info : UTF-8 Plain Text
Duration : 2 h 21 min
Bit rate : 32 b/s
Count of elements : 917
Stream size : 34.0 KiB (0%)
Language : French
Default : No
Forced : No

Text #4
ID : 8
Format : UTF-8
Codec ID : S_TEXT/UTF8
Codec ID/Info : UTF-8 Plain Text
Duration : 2 h 21 min
Bit rate : 37 b/s
Count of elements : 1100
Stream size : 38.5 KiB (0%)
Title : Brazilian
Language : Portuguese
Default : No
Forced : No

Menu
00:00:03.962 : :Logo/Introduction
00:01:32.217 : :Beach Rescue
00:07:00.795 : :Credits/Main Title
00:09:32.405 : :Queen Of Hearts
00:14:11.267 : :Unexpected Guest
00:15:47.404 : :Full Of Surprises
00:19:47.895 : :Draco’s Proposal
00:26:51.067 : :Calling It Quits
00:30:40.213 : :Daddy’s Girl
00:35:02.976 : :A Bond Exclusive
00:37:17.276 : :Break-In
00:43:56.091 : :Trading Places
00:47:46.989 : :To The Alps
00:54:53.832 : :A Cozy Place
00:57:13.179 : :The Alpine Room
01:02:41.215 : :Meeting With Blofeld
01:06:08.631 : :Playtime
01:13:25.025 : :Private Property
01:18:12.020 : :A Madman’s Plan
01:22:23.146 : :High-Wire Act
01:29:18.895 : :Crashing The Party
01:31:40.244 : :Downhill Escape
01:38:36.160 : :Lost In The Crowd
01:44:21.630 : :Love To The Rescue
01:48:30.587 : :Wedding Plans
01:53:56.997 : :Avalanche!
01:58:43.283 : :Help Wanted
02:00:50.868 : :Rescue Mission
02:05:45.830 : :Self-Preservation
02:09:13.871 : :Bond-Sledding
02:11:56.366 : :Mrs. James Bond
02:15:45.721 : :End Credits

 

(He/Him) He's BvSRips. I dedicate myself to sharing files on this blog for free. But it is difficult to maintain the links online for a long time, they are denounced and deleted, reuploading costs more work, that is why a section for VIP users was created, where they can download all the files published 100% in MEGA, as premium, without spend more. I would greatly appreciate your collaboration so that this blog remains online for a longer time.

BUY VIP HERE

Leave a Reply

Your email address will not be published. Required fields are marked *