Octopussy (1983) | 720p & 1080p & 2160p BluRay x265-BvS

A fake Fabergé egg, and a fellow Agent’s death, lead James Bond to uncover an international jewel-smuggling operation, headed by the mysterious Octopussy, being used to disguise a nuclear attack on N.A.T.O. forces.

Links: IMDB  – Trailer

Note: In English with English/French/Spanish/Portuguese Selectable Subtitles

DOWNLOAD

VIP

This content is reserved for registered users. Sign up here o login to be able to see it. Buy your VIP membership

FREE

  • Octopussy.1983.2160p.WEB-DL.DTS-HD.MA.5.1.HEVC-AjA – 23GB (ONLY VIP)

NFO

Octopussy.1983.2160p.WEB-DL.DTS-HD.MA.5.1.HEVC-AjA

General
Unique ID : 116033123413956762198175433134447774921 (0x574B2AAC59EDCFF5ED8F1A2C002FCCC9)
Complete name : Octopussy.1983.2160p.WEB-DL.DTS-HD.MA.5.1.HEVC-AjA.mkv
Format : Matroska
Format version : Version 4
File size : 23.0 GiB
Duration : 2 h 10 min
Overall bit rate mode : Variable
Overall bit rate : 25.2 Mb/s
Movie name : Octopussy (1983)
Encoded date : UTC 2022-05-06 01:53:03
Writing application : mkvmerge v66.0.0 (‘Josie’) 64-bit
Writing library : libebml v1.4.2 + libmatroska v1.6.4

Video
ID : 1
Format : HEVC
Format/Info : High Efficiency Video Coding
Format profile : Main [email protected]@High
Codec ID : V_MPEGH/ISO/HEVC
Duration : 2 h 10 min
Bit rate : 20.6 Mb/s
Width : 3 840 pixels
Height : 1 634 pixels
Display aspect ratio : 2.35:1
Frame rate mode : Constant
Frame rate : 23.976 FPS
Color space : YUV
Chroma subsampling : 4:2:0
Bit depth : 10 bits
Bits/(Pixel*Frame) : 0.137
Stream size : 18.8 GiB (82%)
Default : Yes
Forced : No
Color range : Limited
Color primaries : BT.709
Transfer characteristics : BT.709
Matrix coefficients : BT.709

Audio #1
ID : 2
Format : DTS XLL
Format/Info : Digital Theater Systems
Commercial name : DTS-HD Master Audio
Codec ID : A_DTS
Duration : 2 h 10 min
Bit rate mode : Variable
Bit rate : 4 175 kb/s
Channel(s) : 6 channels
Channel layout : C L R Ls Rs LFE
Sampling rate : 48.0 kHz
Frame rate : 93.750 FPS (512 SPF)
Bit depth : 24 bits
Compression mode : Lossless
Delay relative to video : 5 s 835 ms
Stream size : 3.81 GiB (17%)
Language : English
Default : Yes
Forced : No

Audio #2
ID : 3
Format : AC-3
Format/Info : Audio Coding 3
Commercial name : Dolby Digital
Codec ID : A_AC3
Duration : 2 h 10 min
Bit rate mode : Constant
Bit rate : 384 kb/s
Channel(s) : 6 channels
Channel layout : L R C LFE Ls Rs
Sampling rate : 48.0 kHz
Frame rate : 31.250 FPS (1536 SPF)
Compression mode : Lossy
Stream size : 359 MiB (2%)
Title : British
Language : English
Service kind : Complete Main
Default : No
Forced : No

Text #1
ID : 4
Format : UTF-8
Codec ID : S_TEXT/UTF8
Codec ID/Info : UTF-8 Plain Text
Duration : 2 h 9 min
Bit rate : 27 b/s
Count of elements : 738
Stream size : 26.0 KiB (0%)
Language : English
Default : No
Forced : No

Text #2
ID : 5
Format : UTF-8
Codec ID : S_TEXT/UTF8
Codec ID/Info : UTF-8 Plain Text
Duration : 2 h 9 min
Bit rate : 31 b/s
Count of elements : 835
Stream size : 30.0 KiB (0%)
Title : Latin American
Language : Spanish
Default : No
Forced : No

Text #3
ID : 6
Format : UTF-8
Codec ID : S_TEXT/UTF8
Codec ID/Info : UTF-8 Plain Text
Duration : 2 h 9 min
Bit rate : 28 b/s
Count of elements : 750
Stream size : 26.8 KiB (0%)
Language : French
Default : No
Forced : No

Text #4
ID : 7
Format : UTF-8
Codec ID : S_TEXT/UTF8
Codec ID/Info : UTF-8 Plain Text
Duration : 2 h 9 min
Bit rate : 27 b/s
Count of elements : 833
Stream size : 25.9 KiB (0%)
Title : Brazilian
Language : Portuguese
Default : No
Forced : No

Menu
00:00:05.835 : :Military Maneuver
00:03:22.782 : :Adios Amigos
00:07:34.033 : :Title
00:10:42.012 : :No Clowning
00:13:28.595 : :Eggs Posed
00:16:15.929 : :Armament Argument
00:19:38.924 : :Fakes and Fanatics
00:25:26.563 : :Property of a Lady
00:29:19.504 : :A Deal in Delhi
00:34:16.675 : :Loaded Dice
00:38:56.372 : :Company Car
00:41:44.206 : :Gadgets Galore
00:46:35.121 : :Dinner With Dame
00:49:15.907 : :Palatial Palace
00:53:49.264 : :Checking Out
00:56:28.423 : :Soviet Psycho
01:00:32.958 : :Dangerous Game
01:06:12.172 : :The Octopalace
01:11:49.760 : :The Power of Money
01:14:16.531 : :Two of a Kind
01:20:30.238 : :Stuck on You
01:22:33.695 : :Circus of Deceit
01:25:38.212 : :Russian Rubies
01:28:30.009 : :This Show’s a Bomb
01:31:57.132 : :Orlov Sounds Off
01:40:12.794 : :Train Ride
01:45:31.696 : :Parade
01:51:12.286 : :Defusing the Bomb
01:56:05.287 : :Girl Revenge
01:59:55.935 : :Hot-Air Help
02:02:51.902 : :Airborne Agent
02:07:40.941 : :Credits

 

(He/Him) He's BvSRips. I dedicate myself to sharing files on this blog for free. But it is difficult to maintain the links online for a long time, they are denounced and deleted, reuploading costs more work, that is why a section for VIP users was created, where they can download all the files published 100% in MEGA, as premium, without spend more. I would greatly appreciate your collaboration so that this blog remains online for a longer time.

BUY VIP HERE

Leave a Reply

Your email address will not be published. Required fields are marked *