Norma Rae (1979) | 720p & 1080p & 2160p BluRay x265-BvS

Norma Rae Wilson is a worker in a cotton mill that has taken too much of a toll on the health of her family for her to ignore their poor working conditions. She is also a single mother with two children by different fathers, one dead and the other negligent, and frequently has flings with other men to alleviate her loneliness and boredom. Initially, management tries to divert her frequent protests by promoting her to “spot checker,” where she is responsible for making sure other workers are fulfilling work quotas. She reluctantly takes the job for the pay hike, but when fellow employees, including her own father, shun her for effectively being a “fink” to the bosses, she demands to be fired. Instead, she is demoted back to the line.

Links: iMDB | Trailer

Note: In English with English/French/Spanish Selectable Subtitles

DOWNLOAD

VIP

This content is reserved for registered users. Sign up here o login to be able to see it.

FREE

  • Norma Rae (1979) (1080p BluRay x265 10bit Tigole) – 5.10GB

NFO

1080p.x265-BvS

General
Unique ID : 71291753400310506037122020130530046553 (0x35A24AD1F4603CED31B5507A7764B259)
Complete name : Norma Rae (1979) (1080p BluRay x265 10bit Tigole).mkv
Format : Matroska
Format version : Version 4
File size : 5.10 GiB
Duration : 1 h 54 min
Overall bit rate : 6 366 kb/s
Movie name : Norma Rae
Encoded date : UTC 2021-05-26 16:04:42
Writing application : mkvmerge v55.0.0 (‘Waiting For Space’) 64-bit
Writing library : libebml v1.4.2 + libmatroska v1.6.4

Video
ID : 1
Format : HEVC
Format/Info : High Efficiency Video Coding
Format profile : Main [email protected]@Main
Codec ID : V_MPEGH/ISO/HEVC
Duration : 1 h 54 min
Bit rate : 6 251 kb/s
Width : 1 920 pixels
Height : 804 pixels
Display aspect ratio : 2.40:1
Frame rate mode : Constant
Frame rate : 23.976 (24000/1001) FPS
Color space : YUV
Chroma subsampling : 4:2:0
Bit depth : 10 bits
Bits/(Pixel*Frame) : 0.169
Stream size : 5.00 GiB (98%)
Writing library : x265M – 3.4+35-772bb4c84:[Windows][GCC 10.2.0][64 bit] 10bit
Encoding settings : cpuid=1111039 / frame-threads=3 / numa-pools=8 / wpp / no-pmode / no-pme / no-psnr / no-ssim / log-level=2 / input-csp=1 / input-res=1920×804 / interlace=0 / total-frames=164896 / level-idc=0 / high-tier=1 / uhd-bd=0 / ref=4 / no-allow-non-conformance / no-repeat-headers / annexb / no-aud / no-hrd / info / hash=0 / no-temporal-layers / open-gop / min-keyint=23 / keyint=250 / gop-lookahead=0 / bframes=4 / b-adapt=2 / b-pyramid / bframe-bias=0 / rc-lookahead=25 / lookahead-slices=4 / scenecut=40 / hist-scenecut=0 / radl=0 / no-splice / no-intra-refresh / ctu=64 / min-cu-size=8 / rect / no-amp / max-tu-size=32 / tu-inter-depth=1 / tu-intra-depth=1 / limit-tu=0 / rdoq-level=2 / dynamic-rd=0.00 / no-ssim-rd / signhide / no-tskip / nr-intra=0 / nr-inter=0 / no-constrained-intra / strong-intra-smoothing / max-merge=3 / limit-refs=3 / limit-modes / me=3 / subme=3 / merange=57 / temporal-mvp / no-frame-dup / no-hme / weightp / no-weightb / no-analyze-src-pics / deblock=0:0 / no-sao / no-sao-non-deblock / rd=4 / selective-sao=0 / no-early-skip / rskip / no-fast-intra / no-tskip-fast / no-cu-lossless / no-b-intra / no-splitrd-skip / rdpenalty=0 / psy-rd=2.00 / psy-rdoq=1.00 / no-rd-refine / no-lossless / cbqpoffs=0 / crqpoffs=0 / rc=abr / bitrate=6250 / qcomp=0.60 / qpstep=4 / stats-write=0 / stats-read=2 / cplxblur=20.0 / qblur=0.5 / ipratio=1.40 / pbratio=1.30 / aq-mode=3 / aq-strength=1.00 / cutree / zone-count=0 / no-strict-cbr / qg-size=32 / no-rc-grain / qpmax=69 / qpmin=0 / no-const-vbv / sar=0 / overscan=0 / videoformat=5 / range=0 / colorprim=2 / transfer=2 / colormatrix=2 / chromaloc=0 / display-window=0 / cll=0,0 / min-luma=0 / max-luma=1023 / log2-max-poc-lsb=8 / vui-timing-info / vui-hrd-info / slices=1 / no-opt-qp-pps / no-opt-ref-list-length-pps / multi-pass-opt-rps / scenecut-bias=0.05 / hist-threshold=0.03 / no-opt-cu-delta-qp / aq-motion / no-hdr10 / no-hdr10-opt / no-dhdr10-opt / no-idr-recovery-sei / analysis-reuse-level=0 / analysis-save-reuse-level=0 / analysis-load-reuse-level=0 / scale-factor=0 / refine-intra=0 / refine-inter=0 / refine-mv=1 / refine-ctu-distortion=0 / no-limit-sao / ctu-info=0 / no-lowpass-dct / refine-analysis-type=0 / copy-pic=1 / max-ausize-factor=1.0 / no-dynamic-refine / no-single-sei / no-hevc-aq / no-svt / no-field / qp-adaptation-range=1.00 / scenecut-aware-qp=0conformance-window-offsets / right=0 / bottom=0 / decoder-max-rate=0 / no-vbv-live-multi-pass
Default : Yes
Forced : No

Audio
ID : 2
Format : AAC LC
Format/Info : Advanced Audio Codec Low Complexity
Codec ID : A_AAC-2
Duration : 1 h 54 min
Bit rate : 82.4 kb/s
Channel(s) : 1 channel
Channel layout : C
Sampling rate : 48.0 kHz
Frame rate : 46.875 FPS (1024 SPF)
Compression mode : Lossy
Delay relative to video : 20 ms
Stream size : 67.6 MiB (1%)
Language : English
Default : Yes
Forced : No

Text #1
ID : 3
Format : VobSub
Muxing mode : zlib
Codec ID : S_VOBSUB
Codec ID/Info : Picture based subtitle format used on DVDs
Duration : 1 h 53 min
Bit rate : 8 496 b/s
Count of elements : 1549
Stream size : 6.88 MiB (0%)
Language : English
Default : No
Forced : No

Text #2
ID : 4
Format : VobSub
Muxing mode : zlib
Codec ID : S_VOBSUB
Codec ID/Info : Picture based subtitle format used on DVDs
Duration : 1 h 50 min
Bit rate : 8 272 b/s
Count of elements : 1012
Stream size : 6.55 MiB (0%)
Language : Dutch
Default : No
Forced : No

Text #3
ID : 5
Format : VobSub
Muxing mode : zlib
Codec ID : S_VOBSUB
Codec ID/Info : Picture based subtitle format used on DVDs
Duration : 1 h 50 min
Bit rate : 8 113 b/s
Count of elements : 1038
Stream size : 6.42 MiB (0%)
Language : French
Default : No
Forced : No

Text #4
ID : 6
Format : VobSub
Muxing mode : zlib
Codec ID : S_VOBSUB
Codec ID/Info : Picture based subtitle format used on DVDs
Duration : 1 h 50 min
Bit rate : 8 647 b/s
Count of elements : 1052
Stream size : 6.84 MiB (0%)
Language : Italian
Default : No
Forced : No

Text #5
ID : 7
Format : VobSub
Muxing mode : zlib
Codec ID : S_VOBSUB
Codec ID/Info : Picture based subtitle format used on DVDs
Duration : 1 h 54 min
Bit rate : 5 205 b/s
Count of elements : 1151
Stream size : 4.25 MiB (0%)
Language : Japanese
Default : No
Forced : No

Text #6
ID : 8
Format : VobSub
Muxing mode : zlib
Codec ID : S_VOBSUB
Codec ID/Info : Picture based subtitle format used on DVDs
Duration : 1 h 50 min
Bit rate : 9 205 b/s
Count of elements : 1259
Stream size : 7.28 MiB (0%)
Language : Spanish
Default : No
Forced : No

Menu
00:00:00.000 : en:Chapter 01
00:02:07.127 : en:Chapter 02
00:08:27.006 : en:Chapter 03
00:11:31.524 : en:Chapter 04
00:17:04.356 : en:Chapter 05
00:19:22.661 : en:Chapter 06
00:23:09.596 : en:Chapter 07
00:26:49.024 : en:Chapter 08
00:34:44.165 : en:Chapter 09
00:36:37.653 : en:Chapter 10
00:39:12.558 : en:Chapter 11
00:43:50.628 : en:Chapter 12
00:47:26.134 : en:Chapter 13
00:53:51.353 : en:Chapter 14
00:56:10.283 : en:Chapter 15
01:00:13.318 : en:Chapter 16
01:03:14.040 : en:Chapter 17
01:05:13.868 : en:Chapter 18
01:08:35.903 : en:Chapter 19
01:12:43.067 : en:Chapter 20
01:15:17.513 : en:Chapter 21
01:16:54.985 : en:Chapter 22
01:18:20.404 : en:Chapter 23
01:21:11.283 : en:Chapter 24
01:24:36.863 : en:Chapter 25
01:28:41.816 : en:Chapter 26
01:35:37.648 : en:Chapter 27
01:38:32.489 : en:Chapter 28
01:43:42.132 : en:Chapter 29
01:45:10.971 : en:Chapter 30
01:49:00.158 : en:Chapter 31
01:52:31.745 : en:Chapter 32

 

Leave a Reply

Your email address will not be published. Required fields are marked *