Mortal Kombat Legends Battle of the Realms (2021) | 720p & 1080p & 2160p BluRay x265-BvS

The movie picks up right after Scorpion’s Revenge where the heroes are attacked by Shao Kahn, which will force “Raiden and his group of warriors into a deal to compete in a final Mortal Kombat that will determine the fate of the realms.” This forces the good guys to travel to Outworld defend Earthrealm while Scorpion journeys to find the Kamidogu (a mystic relic made by the almighty Elder Gods) before it is used to bring back the mysterious One Being, who would destroy the universe.

Links: iMDB | Trailer

Note: In English with English Selectable Subtitles

DOWNLOAD

VIP

This content is reserved for registered users. BUY A VIP MEMBERSHIP HERE and login to be able to see it.

FREE

  • Mortal.Kombat.Legends.Battle.of.the.Realms.2021.UHD.BluRay.2160p.DTS-HD.MA.5.1.HEVC.REMUX-FraMeSToR – 30.30GB (ONLY VIP)

NFO

WEBRip.x264-ION10

 

720p.x265-BvS

 

Mortal.Kombat.Legends.Battle.of.the.Realms.2021.UHD.BluRay.2160p.DTS-HD.MA.5.1.HEVC.REMUX-FraMeSToR

General
Unique ID : 40456074254848870181007795291521089850 (0x1E6F8E75BBE0A93CC34F46D8AB7D013A)
Complete name : Mortal.Kombat.Legends.Battle.of.the.Realms.2021.UHD.BluRay.2160p.DTS-HD.MA.5.1.HEVC.REMUX-FraMeSToR.mkv
Format : Matroska
Format version : Version 4
File size : 30.4 GiB
Duration : 1 h 19 min
Overall bit rate mode : Variable
Overall bit rate : 54.5 Mb/s
Movie name : Mortal Kombat Legends: Battle of the Realms (2021) 4K
Encoded date : UTC 2021-09-01 11:24:38
Writing application : mkvmerge v59.0.0 (‘Shining Star’) 64-bit
Writing library : libebml v1.4.2 + libmatroska v1.6.4
IMDB : tt14901058
TMDB : movie/841755

Video
ID : 1
Format : HEVC
Format/Info : High Efficiency Video Coding
Format profile : Main [email protected]@High
HDR format : SMPTE ST 2086, HDR10 compatible
Codec ID : V_MPEGH/ISO/HEVC
Duration : 1 h 19 min
Bit rate : 49.9 Mb/s
Width : 3 840 pixels
Height : 2 160 pixels
Display aspect ratio : 16:9
Frame rate mode : Constant
Frame rate : 23.976 (24000/1001) FPS
Color space : YUV
Chroma subsampling : 4:2:0 (Type 2)
Bit depth : 10 bits
Bits/(Pixel*Frame) : 0.251
Stream size : 27.8 GiB (92%)
Writing library : ATEME Titan File 3.9.6 (4.9.6.2)
Default : Yes
Forced : No
Color range : Limited
Color primaries : BT.2020
Transfer characteristics : PQ
Matrix coefficients : BT.2020 non-constant
Mastering display color primaries : BT.2020
Mastering display luminance : min: 0.0050 cd/m2, max: 4000 cd/m2
Maximum Content Light Level : 533 cd/m2
Maximum Frame-Average Light Level : 258 cd/m2

Audio #1
ID : 2
Format : DTS XLL
Format/Info : Digital Theater Systems
Commercial name : DTS-HD Master Audio
Codec ID : A_DTS
Duration : 1 h 19 min
Bit rate mode : Variable
Bit rate : 4 235 kb/s
Channel(s) : 6 channels
Channel layout : C L R Ls Rs LFE
Sampling rate : 48.0 kHz
Frame rate : 93.750 FPS (512 SPF)
Bit depth : 24 bits
Compression mode : Lossless
Stream size : 2.36 GiB (8%)
Title : DTS-HD MA 5.1
Language : English
Default : Yes
Forced : No

Audio #2
ID : 3
Format : AC-3
Format/Info : Audio Coding 3
Commercial name : Dolby Digital
Codec ID : A_AC3
Duration : 1 h 19 min
Bit rate mode : Constant
Bit rate : 192 kb/s
Channel(s) : 2 channels
Channel layout : L R
Sampling rate : 48.0 kHz
Frame rate : 31.250 FPS (1536 SPF)
Compression mode : Lossy
Stream size : 110 MiB (0%)
Title : Commentary by Producer Rick Morales and Writer Jeremy Adams
Language : English
Service kind : Complete Main
Default : No
Forced : No

Text #1
ID : 4
Format : PGS
Codec ID : S_HDMV/PGS
Codec ID/Info : Picture based subtitle format used on BDs/HD-DVDs
Duration : 1 h 16 min
Bit rate : 25.7 kb/s
Count of elements : 1884
Stream size : 14.2 MiB (0%)
Title : English (SDH)
Language : English
Default : No
Forced : No

Text #2
ID : 5
Format : PGS
Codec ID : S_HDMV/PGS
Codec ID/Info : Picture based subtitle format used on BDs/HD-DVDs
Duration : 1 h 18 min
Bit rate : 19.2 kb/s
Count of elements : 1282
Stream size : 10.8 MiB (0%)
Title : Dutch
Language : Dutch
Default : No
Forced : No

Text #3
ID : 6
Format : PGS
Codec ID : S_HDMV/PGS
Codec ID/Info : Picture based subtitle format used on BDs/HD-DVDs
Duration : 1 h 18 min
Bit rate : 21.7 kb/s
Count of elements : 1288
Stream size : 12.2 MiB (0%)
Title : French
Language : French
Default : No
Forced : No

Text #4
ID : 7
Format : PGS
Codec ID : S_HDMV/PGS
Codec ID/Info : Picture based subtitle format used on BDs/HD-DVDs
Duration : 1 h 17 min
Bit rate : 29.1 kb/s
Count of elements : 1972
Stream size : 16.0 MiB (0%)
Title : German (SDH)
Language : German
Default : No
Forced : No

Text #5
ID : 8
Format : PGS
Codec ID : S_HDMV/PGS
Codec ID/Info : Picture based subtitle format used on BDs/HD-DVDs
Duration : 1 h 18 min
Bit rate : 20.1 kb/s
Count of elements : 1290
Stream size : 11.3 MiB (0%)
Title : Spanish (Castilian)
Language : Spanish
Default : No
Forced : No

Menu
00:00:00.000 : Chapter 1
00:06:47.657 : Chapter 2
00:16:36.162 : Chapter 3
00:26:02.478 : Chapter 4
00:35:15.196 : Chapter 5
00:42:37.805 : Chapter 6
00:50:00.915 : Chapter 7
00:59:14.384 : Chapter 8
01:08:39.532 : Chapter 9
01:17:13.671 : Chapter 10

Leave a Reply

Your email address will not be published. Required fields are marked *