Moonraker (1979) | 720p & 1080p & 2160p BluRay x265-BvS

Moonraker 1979

James Bond investigates the mid-air theft of a space shuttle, and discovers a plot to commit global genocide.

Links: IMDB  – Trailer

Note: In English with English/French/Spanish/Portuguese Selectable Subtitles

DOWNLOAD

VIP

This content is reserved for registered users. Sign up here o login to be able to see it. Buy your VIP membership

FREE

  • Moonraker.1979.2160p.WEB-DL.DTS-HD.MA.5.1.HEVC-AjA – 14GB (ONLY VIP)

NFO

Moonraker.1979.2160p.WEB-DL.DTS-HD.MA.5.1.HEVC-AjA

General
Unique ID : 324679445409392735540820599933342004954 (0xF442FC93659ECAD49604AE7E5DDF36DA)
Complete name : Moonraker.1979.2160p.WEB-DL.DTS-HD.MA.5.1.HEVC-AjA.mkv
Format : Matroska
Format version : Version 4
File size : 14.5 GiB
Duration : 2 h 6 min
Overall bit rate mode : Variable
Overall bit rate : 16.4 Mb/s
Movie name : Moonraker (1979)
Encoded date : UTC 2022-05-06 01:05:38
Writing application : mkvmerge v66.0.0 (‘Josie’) 64-bit
Writing library : libebml v1.4.2 + libmatroska v1.6.4

Video
ID : 1
Format : HEVC
Format/Info : High Efficiency Video Coding
Format profile : Main [email protected]@High
Codec ID : V_MPEGH/ISO/HEVC
Duration : 2 h 6 min
Bit rate : 11.9 Mb/s
Width : 3 840 pixels
Height : 1 630 pixels
Display aspect ratio : 2.35:1
Frame rate mode : Constant
Frame rate : 23.976 (23976/1000) FPS
Color space : YUV
Chroma subsampling : 4:2:0
Bit depth : 10 bits
Bits/(Pixel*Frame) : 0.079
Stream size : 10.5 GiB (72%)
Default : Yes
Forced : No
Color range : Limited
Color primaries : BT.709
Transfer characteristics : BT.709
Matrix coefficients : BT.709

Audio #1
ID : 2
Format : DTS XLL
Format/Info : Digital Theater Systems
Commercial name : DTS-HD Master Audio
Codec ID : A_DTS
Duration : 2 h 6 min
Bit rate mode : Variable
Bit rate : 4 143 kb/s
Channel(s) : 6 channels
Channel layout : C L R Ls Rs LFE
Sampling rate : 48.0 kHz
Frame rate : 93.750 FPS (512 SPF)
Bit depth : 24 bits
Compression mode : Lossless
Delay relative to video : 4 s 16 ms
Stream size : 3.66 GiB (25%)
Language : English
Default : Yes
Forced : No

Audio #2
ID : 3
Format : AC-3
Format/Info : Audio Coding 3
Commercial name : Dolby Digital
Codec ID : A_AC3
Duration : 2 h 6 min
Bit rate mode : Constant
Bit rate : 384 kb/s
Channel(s) : 6 channels
Channel layout : L R C LFE Ls Rs
Sampling rate : 48.0 kHz
Frame rate : 31.250 FPS (1536 SPF)
Compression mode : Lossy
Stream size : 347 MiB (2%)
Title : British
Language : English
Service kind : Complete Main
Default : Yes
Forced : No

Text #1
ID : 4
Format : UTF-8
Codec ID : S_TEXT/UTF8
Codec ID/Info : UTF-8 Plain Text
Duration : 2 h 2 min
Bit rate : 31 b/s
Count of elements : 694
Stream size : 28.3 KiB (0%)
Language : English
Default : No
Forced : No

Text #2
ID : 5
Format : UTF-8
Codec ID : S_TEXT/UTF8
Codec ID/Info : UTF-8 Plain Text
Duration : 2 h 5 min
Bit rate : 32 b/s
Count of elements : 709
Stream size : 30.2 KiB (0%)
Title : Latin American
Language : Spanish
Default : No
Forced : No

Text #3
ID : 6
Format : UTF-8
Codec ID : S_TEXT/UTF8
Codec ID/Info : UTF-8 Plain Text
Duration : 2 h 5 min
Bit rate : 28 b/s
Count of elements : 648
Stream size : 26.3 KiB (0%)
Language : French
Default : No
Forced : No

Text #4
ID : 7
Format : UTF-8
Codec ID : S_TEXT/UTF8
Codec ID/Info : UTF-8 Plain Text
Duration : 2 h 2 min
Bit rate : 28 b/s
Count of elements : 789
Stream size : 26.0 KiB (0%)
Title : Brazilian
Language : Portuguese
Default : No
Forced : No

Menu
00:00:04.016 : :Opening Sequence
00:02:35.417 : :Sharp ‘chuting
00:05:54.908 : :Main Titles
00:11:29.367 : :The Drax Estate
00:19:02.570 : :Centrifugal Bond
00:24:08.292 : :Dufour-Play
00:26:10.247 : :Safecracking
00:29:18.352 : :A Pheasant Pastime
00:32:04.893 : :Dogged Determination
00:33:46.578 : :Trailing Dr. Goodhead
00:37:58.330 : :Going, Going, Gondola
00:41:35.338 : :Toxic Encounters
00:45:45.213 : :By Sword & Piano Chord
00:49:11.169 : :Disarming Dr. Goodhead
00:56:04.290 : :Revelry in Rio
00:59:36.001 : :A Toothy Clown
01:05:26.268 : :The Tram Ram
01:10:37.245 : :Kidnapped
01:13:04.851 : :Magnificent…Bond?
01:16:19.086 : :What’s Mines Is Yours
01:18:42.855 : :Not Hanging Around
01:20:40.890 : :Of Beauties & Boas
01:23:34.063 : :Launching the Fleet
01:27:49.651 : :Some Like It Hot
01:31:36.128 : :Cockpit for Two
01:34:16.288 : :Mett the Space Race
01:38:42.637 : :In the City in Space
01:43:18.579 : :Mutiny
01:48:51.996 : :Battle in Space
01:53:48.709 : :Launching Drax
01:59:27.172 : :Globe Tracking
02:03:50.977 : :End Credits

 

(He/Him) He's BvSRips. I dedicate myself to sharing files on this blog for free. But it is difficult to maintain the links online for a long time, they are denounced and deleted, reuploading costs more work, that is why a section for VIP users was created, where they can download all the files published 100% in MEGA, as premium, without spend more. I would greatly appreciate your collaboration so that this blog remains online for a longer time.

BUY VIP HERE

Leave a Reply

Your email address will not be published. Required fields are marked *