Luca (2021) | 720p & 1080p & 2160p BluRay x265-BvS

On the Italian Riviera, an unlikely but strong friendship grows between a human being and a sea monster disguised as a human.

Links: iMDB | Trailer

Note: In English with English/French/Spanish Selectable Subtitles

DOWNLOAD

VIP

This content is reserved for registered users. BUY A VIP MEMBERSHIP HERE and login to be able to see it.

FREE

  • Luca (2021) (2160p BluRay x265 HEVC 10bit HDR AAC 7.1 Tigole) – 15.00GB (ONLY VIP)

NFO

2160p BluRay x265 HEVC 10bit HDR AAC 7.1 Tigole

General
Unique ID : 219571879345473949462683440527117920853 (0xA53001780658A0791F3076B712902A55)
Complete name : Luca (2021) (2160p BluRay x265 10bit HDR Tigole).mkv
Format : Matroska
Format version : Version 4
File size : 15.1 GiB
Duration : 1 h 35 min
Overall bit rate : 22.7 Mb/s
Movie name : Luca
Encoded date : UTC 2021-08-03 05:28:03
Writing application : mkvmerge v55.0.0 (‘Waiting For Space’) 64-bit
Writing library : libebml v1.4.2 + libmatroska v1.6.4

Video
ID : 1
Format : HEVC
Format/Info : High Efficiency Video Coding
Format profile : Main [email protected]@Main
HDR format : SMPTE ST 2086, HDR10 compatible
Codec ID : V_MPEGH/ISO/HEVC
Duration : 1 h 35 min
Bit rate : 21.9 Mb/s
Width : 3 840 pixels
Height : 2 076 pixels
Display aspect ratio : 1.85:1
Frame rate mode : Constant
Frame rate : 23.976 (24000/1001) FPS
Color space : YUV
Chroma subsampling : 4:2:0
Bit depth : 10 bits
Bits/(Pixel*Frame) : 0.115
Stream size : 14.6 GiB (97%)
Writing library : x265M – 3.4+35-772bb4c84:[Windows][GCC 10.2.0][64 bit] 10bit
Encoding settings : cpuid=1111039 / frame-threads=3 / numa-pools=8 / wpp / no-pmode / no-pme / no-psnr / no-ssim / log-level=2 / input-csp=1 / input-res=3840×2076 / interlace=0 / total-frames=137025 / level-idc=0 / high-tier=1 / uhd-bd=0 / ref=4 / no-allow-non-conformance / repeat-headers / annexb / aud / no-hrd / info / hash=0 / no-temporal-layers / open-gop / min-keyint=23 / keyint=250 / gop-lookahead=0 / bframes=8 / b-adapt=2 / b-pyramid / bframe-bias=0 / rc-lookahead=25 / lookahead-slices=4 / scenecut=40 / hist-scenecut=0 / radl=0 / no-splice / no-intra-refresh / ctu=64 / min-cu-size=8 / rect / no-amp / max-tu-size=32 / tu-inter-depth=1 / tu-intra-depth=1 / limit-tu=0 / rdoq-level=2 / dynamic-rd=0.00 / no-ssim-rd / signhide / no-tskip / nr-intra=0 / nr-inter=0 / no-constrained-intra / strong-intra-smoothing / max-merge=3 / limit-refs=3 / limit-modes / me=3 / subme=3 / merange=57 / temporal-mvp / no-frame-dup / no-hme / weightp / no-weightb / no-analyze-src-pics / deblock=0:0 / no-sao / no-sao-non-deblock / rd=4 / selective-sao=0 / no-early-skip / rskip / no-fast-intra / no-tskip-fast / no-cu-lossless / no-b-intra / no-splitrd-skip / rdpenalty=0 / psy-rd=2.00 / psy-rdoq=1.00 / no-rd-refine / no-lossless / cbqpoffs=0 / crqpoffs=0 / rc=crf / crf=16.0 / qcomp=0.60 / qpstep=4 / stats-write=0 / stats-read=0 / ipratio=1.40 / pbratio=1.30 / aq-mode=2 / aq-strength=1.00 / cutree / zone-count=0 / no-strict-cbr / qg-size=32 / no-rc-grain / qpmax=69 / qpmin=0 / no-const-vbv / sar=0 / overscan=0 / videoformat=5 / range=0 / colorprim=9 / transfer=16 / colormatrix=9 / chromaloc=0 / display-window=0 / master-display=G(8500,39850)B(6550,2300)R(35400,14600)WP(15635,16450)L(10000000,1) / cll=0,0 / min-luma=0 / max-luma=1023 / log2-max-poc-lsb=8 / vui-timing-info / vui-hrd-info / slices=1 / no-opt-qp-pps / no-opt-ref-list-length-pps / no-multi-pass-opt-rps / scenecut-bias=0.05 / hist-threshold=0.03 / no-opt-cu-delta-qp / aq-motion / hdr10 / hdr10-opt / no-dhdr10-opt / no-idr-recovery-sei / analysis-reuse-level=0 / analysis-save-reuse-level=0 / analysis-load-reuse-level=0 / scale-factor=0 / refine-intra=0 / refine-inter=0 / refine-mv=1 / refine-ctu-distortion=0 / no-limit-sao / ctu-info=0 / no-lowpass-dct / refine-analysis-type=0 / copy-pic=1 / max-ausize-factor=1.0 / no-dynamic-refine / no-single-sei / no-hevc-aq / no-svt / no-field / qp-adaptation-range=1.00 / scenecut-aware-qp=0conformance-window-offsets / right=0 / bottom=0 / decoder-max-rate=0 / no-vbv-live-multi-pass
Default : Yes
Forced : No
Color range : Limited
Color primaries : BT.2020
Transfer characteristics : PQ
Matrix coefficients : BT.2020 non-constant
Mastering display color primaries : BT.2020
Mastering display luminance : min: 0.0001 cd/m2, max: 1000 cd/m2

Audio
ID : 2
Format : AAC LC
Format/Info : Advanced Audio Codec Low Complexity
Codec ID : A_AAC-2
Duration : 1 h 35 min
Bit rate : 733 kb/s
Channel(s) : 8 channels
Channel layout : C L R Ls Rs Lb Rb LFE
Sampling rate : 48.0 kHz
Frame rate : 46.875 FPS (1024 SPF)
Compression mode : Lossy
Delay relative to video : 20 ms
Stream size : 499 MiB (3%)
Language : English
Default : Yes
Forced : No

Text #1
ID : 3
Format : VobSub
Muxing mode : zlib
Codec ID : S_VOBSUB
Codec ID/Info : Picture based subtitle format used on DVDs
Duration : 1 h 34 min
Bit rate : 13.9 kb/s
Count of elements : 1989
Stream size : 9.39 MiB (0%)
Language : English
Default : No
Forced : No

Text #2
ID : 4
Format : VobSub
Muxing mode : zlib
Codec ID : S_VOBSUB
Codec ID/Info : Picture based subtitle format used on DVDs
Duration : 1 h 33 min
Bit rate : 8 513 b/s
Count of elements : 1188
Stream size : 5.69 MiB (0%)
Language : French
Default : No
Forced : No

Text #3
ID : 5
Format : VobSub
Muxing mode : zlib
Codec ID : S_VOBSUB
Codec ID/Info : Picture based subtitle format used on DVDs
Duration : 1 h 33 min
Bit rate : 8 437 b/s
Count of elements : 1269
Stream size : 5.64 MiB (0%)
Language : Italian
Default : No
Forced : No

Text #4
ID : 6
Format : VobSub
Muxing mode : zlib
Codec ID : S_VOBSUB
Codec ID/Info : Picture based subtitle format used on DVDs
Duration : 1 h 33 min
Bit rate : 9 470 b/s
Count of elements : 1303
Stream size : 6.33 MiB (0%)
Language : Spanish
Default : No
Forced : No

Menu
00:00:00.000 : en:Chapter 01
00:02:27.897 : en:Chapter 02
00:06:26.928 : en:Chapter 03
00:08:29.884 : en:Chapter 04
00:11:19.512 : en:Chapter 05
00:14:35.291 : en:Chapter 06
00:16:30.197 : en:Chapter 07
00:17:07.735 : en:Chapter 08
00:21:19.486 : en:Chapter 09
00:23:31.785 : en:Chapter 10
00:26:01.226 : en:Chapter 11
00:28:11.815 : en:Chapter 12
00:32:55.515 : en:Chapter 13
00:35:39.971 : en:Chapter 14
00:37:28.996 : en:Chapter 15
00:41:38.204 : en:Chapter 16
00:42:25.876 : en:Chapter 17
00:45:04.118 : en:Chapter 18
00:46:06.680 : en:Chapter 19
00:48:53.513 : en:Chapter 20
00:51:00.098 : en:Chapter 21
00:52:04.746 : en:Chapter 22
00:54:33.561 : en:Chapter 23
00:56:18.833 : en:Chapter 24
00:58:30.340 : en:Chapter 25
01:00:07.520 : en:Chapter 26
01:00:43.514 : en:Chapter 27
01:02:10.059 : en:Chapter 28
01:04:51.888 : en:Chapter 29
01:06:49.088 : en:Chapter 30
01:09:33.711 : en:Chapter 31
01:13:19.978 : en:Chapter 32
01:16:47.352 : en:Chapter 33
01:19:33.393 : en:Chapter 34
01:20:53.723 : en:Chapter 35
01:24:34.944 : en:Chapter 36
01:33:41.532 : en:Chapter 37

Leave a Reply

Your email address will not be published. Required fields are marked *