| 720p & 1080p & 2160p BluRay x265-BvS

James Bond is sent to stop a diabolically brilliant heroin magnate armed with a complex organisation and a reliable psychic tarot card reader.

Links: IMDB  – Trailer

Note: In English with English Selectable Subtitles

DOWNLOAD

VIP

This content is reserved for registered users. Sign up here o login to be able to see it. Buy your VIP membership

FREE

  • Live.and.Let.Die.1973.2160p.WEB-DL.DTS-HD.MA.5.1.HEVC-AjA – 21GB (MEGA FOLDER VIP)

NFO

Live.and.Let.Die.1973.2160p.WEB-DL.DTS-HD.MA.5.1.HEVC-Aj

General
Unique ID : 213874684472309334674141806917324036911 (0xA0E6C413259E5A1B243B2B4114D2DB2F)
Complete name : Live.and.Let.Die.1973.2160p.WEB-DL.DTS-HD.MA.5.1.HEVC-AjA.mkv
Format : Matroska
Format version : Version 4
File size : 21.1 GiB
Duration : 2 h 1 min
Overall bit rate mode : Variable
Overall bit rate : 24.8 Mb/s
Movie name : Live and Let Die (1973)
Encoded date : UTC 2022-05-05 23:29:51
Writing application : mkvmerge v66.0.0 (‘Josie’) 64-bit
Writing library : libebml v1.4.2 + libmatroska v1.6.4

Video
ID : 1
Format : HEVC
Format/Info : High Efficiency Video Coding
Format profile : Main [email protected]@High
Codec ID : V_MPEGH/ISO/HEVC
Duration : 2 h 1 min
Bit rate : 20.8 Mb/s
Width : 3 840 pixels
Height : 2 076 pixels
Display aspect ratio : 1.85:1
Frame rate mode : Constant
Frame rate : 23.976 (23976/1000) FPS
Color space : YUV
Chroma subsampling : 4:2:0
Bit depth : 10 bits
Bits/(Pixel*Frame) : 0.109
Stream size : 17.7 GiB (84%)
Default : Yes
Forced : No
Color range : Limited
Color primaries : BT.709
Transfer characteristics : BT.709
Matrix coefficients : BT.709

Audio #1
ID : 2
Format : DTS XLL
Format/Info : Digital Theater Systems
Commercial name : DTS-HD Master Audio
Codec ID : A_DTS
Duration : 2 h 1 min
Bit rate mode : Variable
Bit rate : 3 631 kb/s
Channel(s) : 6 channels
Channel layout : C L R Ls Rs LFE
Sampling rate : 48.0 kHz
Frame rate : 93.750 FPS (512 SPF)
Bit depth : 24 bits
Compression mode : Lossless
Delay relative to video : 3 s 829 ms
Stream size : 3.09 GiB (15%)
Language : English
Default : Yes
Forced : No

Audio #2
ID : 3
Format : AC-3
Format/Info : Audio Coding 3
Commercial name : Dolby Digital
Codec ID : A_AC3
Duration : 2 h 1 min
Bit rate mode : Constant
Bit rate : 384 kb/s
Channel(s) : 6 channels
Channel layout : L R C LFE Ls Rs
Sampling rate : 48.0 kHz
Frame rate : 31.250 FPS (1536 SPF)
Compression mode : Lossy
Stream size : 334 MiB (2%)
Title : British
Language : English
Service kind : Complete Main
Default : No
Forced : No

Text #1
ID : 4
Format : UTF-8
Codec ID : S_TEXT/UTF8
Codec ID/Info : UTF-8 Plain Text
Duration : 1 h 58 min
Bit rate : 36 b/s
Count of elements : 800
Stream size : 31.7 KiB (0%)
Language : English
Default : No
Forced : No

Text #2
ID : 5
Format : UTF-8
Codec ID : S_TEXT/UTF8
Codec ID/Info : UTF-8 Plain Text
Duration : 2 h 0 min
Bit rate : 31 b/s
Count of elements : 878
Stream size : 28.1 KiB (0%)
Title : Latin American
Language : Spanish
Default : No
Forced : No

Text #3
ID : 6
Format : UTF-8
Codec ID : S_TEXT/UTF8
Codec ID/Info : UTF-8 Plain Text
Duration : 1 h 59 min
Bit rate : 33 b/s
Count of elements : 792
Stream size : 29.0 KiB (0%)
Language : French
Default : No
Forced : No

Text #4
ID : 7
Format : UTF-8
Codec ID : S_TEXT/UTF8
Codec ID/Info : UTF-8 Plain Text
Duration : 1 h 59 min
Bit rate : 33 b/s
Count of elements : 863
Stream size : 29.0 KiB (0%)
Title : Brazilian
Language : Portuguese
Default : No
Forced : No

Menu
00:00:03.829 : :Logos/United Nations
00:04:59.958 : :Funeral for Two
00:07:41.703 : :Snake Dance
00:12:34.996 : :Live and Let Die/Credits
00:18:01.239 : :Magnetic Closet Case
00:22:40.226 : :Road Rage
00:26:35.210 : :Recorded Speech
00:28:53.682 : :”Oh Cult Voodoo”
00:30:37.411 : :Tailing a “Cue Ball”
00:34:49.955 : :”Filet of Soul”
00:38:23.126 : :It’s In the Cards
00:41:58.716 : :Cia Saves the Spy
00:46:57.890 : :”Man Who Cannot Die”
00:51:10.768 : :Bugged and Snaked
00:54:55.326 : :”Mrs. Bond?”
00:57:22.556 : :Morning Fishing
01:03:06.107 : :Future Teller
01:05:02.641 : :Double Agent
01:07:10.226 : :”Where Is Bond Now?”
01:10:51.531 : :Lookout Knockout
01:14:57.443 : :Blasphemous Bond
01:19:33.052 : :Out of Sight
01:26:21.543 : :Following Scarecrows
01:31:59.339 : :Copter/Cop Attack
01:35:52.655 : :”Valuable Piece”
01:40:31.350 : :Cab Capture
01:44:54.113 : :”Let’s Just Wing It”
01:47:44.575 : :Soulful Funeral
01:49:44.862 : :Live and Let Die
01:55:37.756 : :Unmasked Man and Plan
01:56:34.646 : :Solitaire/Death Card
02:00:09.819 : :”Feeding Time”

 

(He/Him) He's BvSRips. I dedicate myself to sharing files on this blog for free. But it is difficult to maintain the links online for a long time, they are denounced and deleted, reuploading costs more work, that is why a section for VIP users was created, where they can download all the files published 100% in MEGA, as premium, without spend more. I would greatly appreciate your collaboration so that this blog remains online for a longer time.

BUY VIP HERE

Leave a Reply

Your email address will not be published. Required fields are marked *