Licence to Kill (1989) | 720p & 1080p & 2160p BluRay x265-BvS

Licence to Kill (1989)

A vengeful James Bond goes rogue to infiltrate and take down the organization of a drug lord who has murdered his friend’s new wife and left him near-death.

Links: IMDB Trailer

Note: In English with English/Spanish/French/Portuguese Selectable Subtitles

DOWNLOAD

VIP

This content is reserved for registered users. Sign up here o login to be able to see it. Buy your VIP membership

FREE

  • Licence.to.Kill.1989.2160p.WEB-DL.DTS-HD.MA.5.1.HEVC-AjA – 22.40GB (ONLY VIP)

NFO

Licence.to.Kill.1989.2160p.WEB-DL.DTS-HD.MA.5.1.HEVC-AjA

General
Complete name : Licence.to.Kill.1989.2160p.WEB-DL.DTS-HD.MA.5.1.HEVC-AjA.mkv
Format : Matroska
Format version : Version 4
File size : 22.4 GiB
Duration : 2 h 13 min
Overall bit rate mode : Variable
Overall bit rate : 24.0 Mb/s
Movie name : Licence to Kill (1989)
Encoded date : UTC 2022-05-06 03:07:40
Writing application : mkvmerge v66.0.0 (‘Josie’) 64-bit
Writing library : libebml v1.4.2 + libmatroska v1.6.4

Video
ID : 1
Format : HEVC
Format/Info : High Efficiency Video Coding
Format profile : Main [email protected]@High
Codec ID : V_MPEGH/ISO/HEVC
Duration : 2 h 13 min
Bit rate : 20.7 Mb/s
Width : 3 840 pixels
Height : 1 634 pixels
Display aspect ratio : 2.35:1
Frame rate mode : Constant
Frame rate : 23.976 (23976/1000) FPS
Color space : YUV
Chroma subsampling : 4:2:0
Bit depth : 10 bits
Bits/(Pixel*Frame) : 0.137
Stream size : 19.3 GiB (86%)
Default : Yes
Forced : No
Color range : Limited
Color primaries : BT.709
Transfer characteristics : BT.709
Matrix coefficients : BT.709

Audio #1
ID : 2
Format : DTS XLL
Format/Info : Digital Theater Systems
Commercial name : DTS-HD Master Audio
Codec ID : A_DTS
Duration : 1 h 46 min
Bit rate mode : Variable
Bit rate : 3 730 kb/s
Channel(s) : 6 channels
Channel layout : C L R Ls Rs LFE
Sampling rate : 48.0 kHz
Frame rate : 93.750 FPS (512 SPF)
Bit depth : 24 bits
Compression mode : Lossless
Delay relative to video : 7 s 906 ms
Stream size : 2.76 GiB (12%)
Language : English
Default : Yes
Forced : No

Audio #2
ID : 3
Format : AC-3
Format/Info : Audio Coding 3
Commercial name : Dolby Digital
Codec ID : A_AC3
Duration : 2 h 13 min
Bit rate mode : Constant
Bit rate : 384 kb/s
Channel(s) : 6 channels
Channel layout : L R C LFE Ls Rs
Sampling rate : 48.0 kHz
Frame rate : 31.250 FPS (1536 SPF)
Compression mode : Lossy
Stream size : 366 MiB (2%)
Title : British
Language : English
Service kind : Complete Main
Default : No
Forced : No

Text #1
ID : 4
Format : UTF-8
Codec ID : S_TEXT/UTF8
Codec ID/Info : UTF-8 Plain Text
Duration : 2 h 9 min
Bit rate : 39 b/s
Count of elements : 1050
Stream size : 37.3 KiB (0%)
Language : English
Default : No
Forced : No

Text #2
ID : 5
Format : UTF-8
Codec ID : S_TEXT/UTF8
Codec ID/Info : UTF-8 Plain Text
Duration : 2 h 9 min
Bit rate : 37 b/s
Count of elements : 1069
Stream size : 35.2 KiB (0%)
Title : Latin American
Language : Spanish
Default : No
Forced : No

Text #3
ID : 6
Format : UTF-8
Codec ID : S_TEXT/UTF8
Codec ID/Info : UTF-8 Plain Text
Duration : 2 h 12 min
Bit rate : 39 b/s
Count of elements : 887
Stream size : 37.9 KiB (0%)
Language : French
Default : No
Forced : No

Text #4
ID : 7
Format : UTF-8
Codec ID : S_TEXT/UTF8
Codec ID/Info : UTF-8 Plain Text
Duration : 2 h 9 min
Bit rate : 36 b/s
Count of elements : 1041
Stream size : 34.9 KiB (0%)
Title : Brazilian
Language : Portuguese
Default : No
Forced : No

Menu
00:00:07.906 : :Opening Sequence
00:08:45.465 : :Main Title
00:11:34.634 : :Everyone has a price
00:15:52.975 : :Underwater “Spring”
00:18:36.222 : :”See you in hell”
00:27:40.307 : :Spy meets shark
00:31:36.251 : :Blood money
00:33:00.210 : :Licence Revoked
00:36:24.163 : :”Man” -ta ray
00:40:52.890 : :”Bolt your Door”
00:43:41.183 : :Spy Hunt/Drug Load
00:46:20.885 : :Waterski Escape
00:47:50.391 : :Flying Money
00:50:46.859 : :Bar Fight
00:55:07.828 : :”Out of Gas!”
00:57:47.445 : :Banco de Isthmas
01:02:13.878 : :Prof. High Stakes
01:11:37.650 : :Family Reunion
01:14:53.721 : :Evil meets Evil
01:20:31.725 : :Netting a rogue spy
01:25:49.251 : :Former British Agent
01:30:48.091 : :007 always returns
01:32:42.372 : :Pressurised deposit
01:38:41.313 : :Romance/Jealousy
01:43:01.573 : :Drug Plant Tour
01:49:52.275 : :The Conveyor
01:55:02.293 : :Profits up in flames
01:56:54.405 : :Truck Jacking
02:01:29.555 : :Tanker Attack
02:05:40.640 : :Not Dead Yet
02:08:39.443 : :Splashing Finish
02:10:44.652 : :End Credits

(He/Him) He's BvSRips. I dedicate myself to sharing files on this blog for free. But it is difficult to maintain the links online for a long time, they are denounced and deleted, reuploading costs more work, that is why a section for VIP users was created, where they can download all the files published 100% in MEGA, as premium, without spend more. I would greatly appreciate your collaboration so that this blog remains online for a longer time.

BUY VIP HERE

Leave a Reply

Your email address will not be published. Required fields are marked *