Jurassic World Dominion (2022) | 720p & 1080p & 2160p BluRay x265-BvS

Four years after Isla Nublar was destroyed, dinosaurs now live—and hunt—alongside humans all over the world. This fragile balance will reshape the future and determine, once and for all, whether human beings are to remain the apex predators on a planet they now share with history’s most fearsome creatures.

Links: iMDB | Trailer

Note: In English with English Selectable Subtitles

DOWNLOAD

VIP (MEGA FOLDER)

This content is reserved for registered users. Sign up here o login to be able to see it. Buy your VIP membership

FREE

  • Jurassic.World.Dominion.2022.1080p.AMZN.WEB-DL.DDP5.1.H.264-CMRG – 9.87GB (ONLY VIP)
  • Jurassic.World.Dominion.2022.2160p.WEB-DL.DDP5.1.Atmos.DV.HEVC-CMRG – 25.5GB (ONLY VIP)
  • Jurassic.World.Dominion.2022.2160p.AMZN.WEB-DL.DDP5.1.HDR.HEVC-CMRG – 15.8GB (ONLY VIP)
  • Jurassic.World.Dominion.2022.1080p.AMZN.WEBRip.x265-BvS – 1.9GB

NFO

Jurassic.World.Dominion.2022.1080p.AMZN.WEB-DL.DDP5.1.H.264-CMRG

General
Unique ID : 187795588626702462375522447741455104809 (0x8D481D60A63023DD87983F0DB15EFB29)
Complete name : Jurassic.World.Dominion.2022.1080p.AMZN.WEB-DL.DDP5.1.H.264-CMRG.mkv
Format : Matroska
Format version : Version 4
File size : 9.87 GiB
Duration : 2 h 27 min
Overall bit rate : 9 580 kb/s
Encoded date : UTC 2022-07-14 02:32:05
Writing application : mkvmerge v61.0.0 (‘So’) 64-bit
Writing library : libebml v1.4.2 + libmatroska v1.6.4

Video
ID : 1
Format : AVC
Format/Info : Advanced Video Codec
Format profile : [email protected]
Format settings : CABAC / 4 Ref Frames
Format settings, CABAC : Yes
Format settings, Reference frames : 4 frames
Codec ID : V_MPEG4/ISO/AVC
Duration : 2 h 27 min
Bit rate : 8 938 kb/s
Width : 1 920 pixels
Height : 960 pixels
Display aspect ratio : 2.000
Frame rate mode : Constant
Frame rate : 23.976 (24000/1001) FPS
Color space : YUV
Chroma subsampling : 4:2:0
Bit depth : 8 bits
Scan type : Progressive
Bits/(Pixel*Frame) : 0.202
Stream size : 9.21 GiB (93%)
Language : English
Default : Yes
Forced : No
Color range : Limited
Color primaries : BT.709
Transfer characteristics : BT.709
Matrix coefficients : BT.709

Audio
ID : 2
Format : E-AC-3
Format/Info : Enhanced AC-3
Commercial name : Dolby Digital Plus
Codec ID : A_EAC3
Duration : 2 h 27 min
Bit rate mode : Constant
Bit rate : 640 kb/s
Channel(s) : 6 channels
Channel layout : L R C LFE Ls Rs
Sampling rate : 48.0 kHz
Frame rate : 31.250 FPS (1536 SPF)
Compression mode : Lossy
Stream size : 675 MiB (7%)
Language : English
Service kind : Complete Main
Default : Yes
Forced : No

Text #1
ID : 3
Format : UTF-8
Codec ID : S_TEXT/UTF8
Codec ID/Info : UTF-8 Plain Text
Duration : 2 h 26 min
Bit rate : 55 b/s
Count of elements : 2393
Stream size : 59.3 KiB (0%)
Title : SDH
Language : English
Default : No
Forced : No

Text #2
ID : 4
Format : UTF-8
Codec ID : S_TEXT/UTF8
Codec ID/Info : UTF-8 Plain Text
Duration : 2 h 26 min
Bit rate : 44 b/s
Count of elements : 1820
Stream size : 47.5 KiB (0%)
Language : English
Default : No
Forced : No

Jurassic.World.Dominion.2022.2160p.WEB-DL.DDP5.1.Atmos.DV.HEVC-CMRG

General
Unique ID : 153610529078304547290462153825489837825 (0x73904FD052B2A005608E37F31710DF01)
Complete name : Jurassic.World.Dominion.2022.2160p.WEB-DL.DDP5.1.Atmos.DV.H.265-EVO.mkv
Format : Matroska
Format version : Version 4
File size : 25.9 GiB
Duration : 2 h 26 min
Overall bit rate : 25.2 Mb/s
Encoded date : UTC 2022-07-14 04:05:58
Writing application : mkvmerge v63.0.0 (‘Everything’) 64-bit
Writing library : libebml v1.4.2 + libmatroska v1.6.4

Video
ID : 1
Format : HEVC
Format/Info : High Efficiency Video Coding
Format profile : Main [email protected]@High
HDR format : Dolby Vision, Version 1.0, dvhe.05.06, BL+RPU
Codec ID : V_MPEGH/ISO/HEVC
Duration : 2 h 26 min
Bit rate : 24.5 Mb/s
Width : 3 840 pixels
Height : 1 918 pixels
Display aspect ratio : 2.002
Frame rate mode : Constant
Frame rate : 23.976 (24000/1001) FPS
Color space : YUV
Chroma subsampling : 4:2:0
Bit depth : 10 bits
Bits/(Pixel*Frame) : 0.139
Stream size : 25.1 GiB (97%)
Default : Yes
Forced : No

Audio
ID : 2
Format : E-AC-3 JOC
Format/Info : Enhanced AC-3 with Joint Object Coding
Commercial name : Dolby Digital Plus with Dolby Atmos
Codec ID : A_EAC3
Duration : 2 h 26 min
Bit rate mode : Constant
Bit rate : 768 kb/s
Channel(s) : 6 channels
Channel layout : L R C LFE Ls Rs
Sampling rate : 48.0 kHz
Frame rate : 31.250 FPS (1536 SPF)
Compression mode : Lossy
Stream size : 807 MiB (3%)
Language : English
Service kind : Complete Main
Default : Yes
Forced : No
Complexity index : 16
Number of dynamic objects : 15
Bed channel count : 1 channel
Bed channel configuration : LFE

Jurassic.World.Dominion.2022.2160p.AMZN.WEB-DL.DDP5.1.HDR.HEVC-CMRG

General
Unique ID : 102944586811021411744083815375705284166 (0x4D7267FF078F0673434D7C5672211E46)
Complete name : Jurassic.World.Dominion.2022.2160p.WEB-DL.DDP5.1.Atmos.HDR.H.265-EVO.mkv
Format : Matroska
Format version : Version 4
File size : 15.6 GiB
Duration : 2 h 26 min
Overall bit rate : 15.2 Mb/s
Encoded date : UTC 2022-07-14 04:13:53
Writing application : mkvmerge v63.0.0 (‘Everything’) 64-bit
Writing library : libebml v1.4.2 + libmatroska v1.6.4

Video
ID : 1
Format : HEVC
Format/Info : High Efficiency Video Coding
Format profile : Main [email protected]@High
HDR format : SMPTE ST 2086, HDR10 compatible
Codec ID : V_MPEGH/ISO/HEVC
Duration : 2 h 26 min
Bit rate : 14.4 Mb/s
Width : 3 840 pixels
Height : 1 918 pixels
Display aspect ratio : 2.002
Frame rate mode : Constant
Frame rate : 23.976 FPS
Color space : YUV
Chroma subsampling : 4:2:0 (Type 2)
Bit depth : 10 bits
Bits/(Pixel*Frame) : 0.082
Stream size : 14.8 GiB (95%)
Default : Yes
Forced : No
Color range : Limited
Color primaries : BT.2020
Transfer characteristics : PQ
Matrix coefficients : BT.2020 non-constant
Mastering display color primaries : BT.2020
Mastering display luminance : min: 0.0050 cd/m2, max: 1000 cd/m2
Maximum Content Light Level : 962 cd/m2
Maximum Frame-Average Light Level : 362 cd/m2

Audio
ID : 2
Format : E-AC-3 JOC
Format/Info : Enhanced AC-3 with Joint Object Coding
Commercial name : Dolby Digital Plus with Dolby Atmos
Codec ID : A_EAC3
Duration : 2 h 26 min
Bit rate mode : Constant
Bit rate : 768 kb/s
Channel(s) : 6 channels
Channel layout : L R C LFE Ls Rs
Sampling rate : 48.0 kHz
Frame rate : 31.250 FPS (1536 SPF)
Compression mode : Lossy
Stream size : 807 MiB (5%)
Language : English
Service kind : Complete Main
Default : Yes
Forced : No
Complexity index : 16
Number of dynamic objects : 15
Bed channel count : 1 channel
Bed channel configuration : LFE

Jurassic.World.Dominion.2022.1080p.AMZN.WEBRip.x265-BvS

 

(He/Him) He's BvSRips. I dedicate myself to sharing files on this blog for free. But it is difficult to maintain the links online for a long time, they are denounced and deleted, reuploading costs more work, that is why a section for VIP users was created, where they can download all the files published 100% in MEGA, as premium, without spend more. I would greatly appreciate your collaboration so that this blog remains online for a longer time.

BUY VIP HERE

Leave a Reply

Your email address will not be published. Required fields are marked *