Indiana Jones and the Raiders of the Lost Ark (1981) | 720p & 1080p & 2160p BluRay x265-BvS

The year is 1936. An archeology professor named Indiana Jones is venturing in the jungles of South America searching for a golden statue. Unfortunately, he sets off a deadly trap but miraculously escapes. Then, Jones hears from a museum curator named Marcus Brody about a biblical artifact called The Ark of the Covenant, which can hold the key to humanly existence. Jones has to venture to vast places such as Nepal and Egypt to find this artifact. However, he will have to fight his enemy Rene Belloq and a band of Nazis in order to reach it.

Links: iMDB | Trailer

Note: In English with English/French/Spanish Selectable Subtitles

DOWNLOAD

VIP

This content is reserved for registered users. BUY A VIP MEMBERSHIP HERE and login to be able to see it.

FREE

  • Indiana Jones and the Raiders of the Lost Ark (1981) (2160p BluRay x265 HEVC 10bit HDR AAC 7.1 Tigole) – 15.20GB (ONLY VIP)

NFO

WEBRip.x264-ION10

 

720p.x265-BvS

 

2160p BluRay x265 HEVC 10bit HDR AAC 7.1 Tigole

General
Unique ID : 281229449969626047352047125721623107093 (0xD392D267A54252F7079D5EEC3C011615)
Complete name : Indiana Jones and the Raiders of the Lost Ark (1981) (2160p BluRay x265 10bit HDR Tigole).mkv
Format : Matroska
Format version : Version 4
File size : 15.2 GiB
Duration : 1 h 55 min
Overall bit rate : 18.9 Mb/s
Movie name : Indiana Jones and the Raiders of the Lost Ark
Encoded date : UTC 2021-06-27 02:04:58
Writing application : mkvmerge v55.0.0 (‘Waiting For Space’) 64-bit
Writing library : libebml v1.4.2 + libmatroska v1.6.4

Video
ID : 1
Format : HEVC
Format/Info : High Efficiency Video Coding
Format profile : Main [email protected]@Main
HDR format : SMPTE ST 2086, HDR10 compatible
Codec ID : V_MPEGH/ISO/HEVC
Duration : 1 h 55 min
Bit rate : 18.0 Mb/s
Width : 3 840 pixels
Height : 1 636 pixels
Display aspect ratio : 2.35:1
Frame rate mode : Constant
Frame rate : 23.976 (24000/1001) FPS
Color space : YUV
Chroma subsampling : 4:2:0
Bit depth : 10 bits
Bits/(Pixel*Frame) : 0.119
Stream size : 14.5 GiB (95%)
Writing library : x265M – 3.4+35-772bb4c84:[Windows][GCC 10.2.0][64 bit] 10bit
Encoding settings : cpuid=1111039 / frame-threads=3 / numa-pools=8 / wpp / no-pmode / no-pme / no-psnr / no-ssim / log-level=2 / input-csp=1 / input-res=3840×1636 / interlace=0 / total-frames=165868 / level-idc=0 / high-tier=1 / uhd-bd=0 / ref=4 / no-allow-non-conformance / repeat-headers / annexb / aud / no-hrd / info / hash=0 / no-temporal-layers / open-gop / min-keyint=23 / keyint=250 / gop-lookahead=0 / bframes=4 / b-adapt=2 / b-pyramid / bframe-bias=0 / rc-lookahead=25 / lookahead-slices=4 / scenecut=40 / hist-scenecut=0 / radl=0 / no-splice / no-intra-refresh / ctu=64 / min-cu-size=8 / rect / no-amp / max-tu-size=32 / tu-inter-depth=1 / tu-intra-depth=1 / limit-tu=0 / rdoq-level=2 / dynamic-rd=0.00 / no-ssim-rd / signhide / no-tskip / nr-intra=0 / nr-inter=0 / no-constrained-intra / strong-intra-smoothing / max-merge=3 / limit-refs=3 / limit-modes / me=3 / subme=3 / merange=57 / temporal-mvp / no-frame-dup / no-hme / weightp / no-weightb / no-analyze-src-pics / deblock=0:0 / no-sao / no-sao-non-deblock / rd=4 / selective-sao=0 / no-early-skip / rskip / no-fast-intra / no-tskip-fast / no-cu-lossless / no-b-intra / no-splitrd-skip / rdpenalty=0 / psy-rd=2.00 / psy-rdoq=1.00 / no-rd-refine / no-lossless / cbqpoffs=0 / crqpoffs=0 / rc=abr / bitrate=18000 / qcomp=0.60 / qpstep=4 / stats-write=0 / stats-read=2 / cplxblur=20.0 / qblur=0.5 / ipratio=1.40 / pbratio=1.30 / aq-mode=2 / aq-strength=1.00 / cutree / zone-count=0 / no-strict-cbr / qg-size=32 / no-rc-grain / qpmax=69 / qpmin=0 / no-const-vbv / sar=0 / overscan=0 / videoformat=5 / range=0 / colorprim=9 / transfer=16 / colormatrix=9 / chromaloc=0 / display-window=0 / master-display=G(13250,34500)B(7500,3000)R(34000,16000)WP(15635,16450)L(40000000,50) / cll=1000,551 / min-luma=0 / max-luma=1023 / log2-max-poc-lsb=8 / vui-timing-info / vui-hrd-info / slices=1 / no-opt-qp-pps / no-opt-ref-list-length-pps / no-multi-pass-opt-rps / scenecut-bias=0.05 / hist-threshold=0.03 / no-opt-cu-delta-qp / aq-motion / hdr10 / hdr10-opt / no-dhdr10-opt / no-idr-recovery-sei / analysis-reuse-level=0 / analysis-save-reuse-level=0 / analysis-load-reuse-level=0 / scale-factor=0 / refine-intra=0 / refine-inter=0 / refine-mv=1 / refine-ctu-distortion=0 / no-limit-sao / ctu-info=0 / no-lowpass-dct / refine-analysis-type=0 / copy-pic=1 / max-ausize-factor=1.0 / no-dynamic-refine / no-single-sei / no-hevc-aq / no-svt / no-field / qp-adaptation-range=1.00 / scenecut-aware-qp=0conformance-window-offsets / right=0 / bottom=0 / decoder-max-rate=0 / no-vbv-live-multi-pass
Default : Yes
Forced : No
Color range : Limited
Color primaries : BT.2020
Transfer characteristics : PQ
Matrix coefficients : BT.2020 non-constant
Mastering display color primaries : Display P3
Mastering display luminance : min: 0.0050 cd/m2, max: 4000 cd/m2
Maximum Content Light Level : 1000 cd/m2
Maximum Frame-Average Light Level : 551 cd/m2

Audio
ID : 2
Format : AAC LC
Format/Info : Advanced Audio Codec Low Complexity
Codec ID : A_AAC-2
Duration : 1 h 55 min
Bit rate : 816 kb/s
Channel(s) : 8 channels
Channel layout : C L R Ls Rs Lb Rb LFE
Sampling rate : 48.0 kHz
Frame rate : 46.875 FPS (1024 SPF)
Compression mode : Lossy
Delay relative to video : 20 ms
Stream size : 673 MiB (4%)
Language : English
Default : Yes
Forced : No

Text #1
ID : 3
Format : VobSub
Muxing mode : zlib
Codec ID : S_VOBSUB
Codec ID/Info : Picture based subtitle format used on DVDs
Duration : 1 h 49 min
Bit rate : 7 050 b/s
Count of elements : 1225
Stream size : 5.53 MiB (0%)
Language : English
Default : No
Forced : No

Text #2
ID : 4
Format : VobSub
Muxing mode : zlib
Codec ID : S_VOBSUB
Codec ID/Info : Picture based subtitle format used on DVDs
Duration : 1 h 52 min
Bit rate : 2 984 b/s
Count of elements : 592
Stream size : 2.41 MiB (0%)
Language : Chinese
Default : No
Forced : No

Text #3
ID : 5
Format : VobSub
Muxing mode : zlib
Codec ID : S_VOBSUB
Codec ID/Info : Picture based subtitle format used on DVDs
Duration : 1 h 53 min
Bit rate : 4 394 b/s
Count of elements : 611
Stream size : 3.55 MiB (0%)
Language : Danish
Default : No
Forced : No

Text #4
ID : 6
Format : VobSub
Muxing mode : zlib
Codec ID : S_VOBSUB
Codec ID/Info : Picture based subtitle format used on DVDs
Duration : 1 h 53 min
Bit rate : 4 379 b/s
Count of elements : 567
Stream size : 3.54 MiB (0%)
Language : Dutch
Default : No
Forced : No

Text #5
ID : 7
Format : VobSub
Muxing mode : zlib
Codec ID : S_VOBSUB
Codec ID/Info : Picture based subtitle format used on DVDs
Duration : 1 h 53 min
Bit rate : 4 444 b/s
Count of elements : 573
Stream size : 3.59 MiB (0%)
Language : Finnish
Default : No
Forced : No

Text #6
ID : 8
Format : VobSub
Muxing mode : zlib
Codec ID : S_VOBSUB
Codec ID/Info : Picture based subtitle format used on DVDs
Duration : 1 h 54 min
Bit rate : 4 598 b/s
Count of elements : 588
Stream size : 3.78 MiB (0%)
Language : French
Default : No
Forced : No

Text #7
ID : 9
Format : VobSub
Muxing mode : zlib
Codec ID : S_VOBSUB
Codec ID/Info : Picture based subtitle format used on DVDs
Duration : 1 h 54 min
Bit rate : 4 780 b/s
Count of elements : 597
Stream size : 3.92 MiB (0%)
Language : Italian
Default : No
Forced : No

Text #8
ID : 10
Format : VobSub
Muxing mode : zlib
Codec ID : S_VOBSUB
Codec ID/Info : Picture based subtitle format used on DVDs
Duration : 1 h 48 min
Bit rate : 3 544 b/s
Count of elements : 676
Stream size : 2.75 MiB (0%)
Language : Japanese
Default : No
Forced : No

Text #9
ID : 11
Format : VobSub
Muxing mode : zlib
Codec ID : S_VOBSUB
Codec ID/Info : Picture based subtitle format used on DVDs
Duration : 1 h 54 min
Bit rate : 2 869 b/s
Count of elements : 774
Stream size : 2.36 MiB (0%)
Language : Korean
Default : No
Forced : No

Text #10
ID : 12
Format : VobSub
Muxing mode : zlib
Codec ID : S_VOBSUB
Codec ID/Info : Picture based subtitle format used on DVDs
Duration : 1 h 53 min
Bit rate : 4 054 b/s
Count of elements : 584
Stream size : 3.28 MiB (0%)
Language : Norwegian Bokmal
Default : No
Forced : No

Text #11
ID : 13
Format : VobSub
Muxing mode : zlib
Codec ID : S_VOBSUB
Codec ID/Info : Picture based subtitle format used on DVDs
Duration : 1 h 54 min
Bit rate : 4 575 b/s
Count of elements : 579
Stream size : 3.76 MiB (0%)
Language : Russian
Default : No
Forced : No

Text #12
ID : 14
Format : VobSub
Muxing mode : zlib
Codec ID : S_VOBSUB
Codec ID/Info : Picture based subtitle format used on DVDs
Duration : 1 h 54 min
Bit rate : 4 449 b/s
Count of elements : 593
Stream size : 3.65 MiB (0%)
Language : Spanish
Default : No
Forced : No

Text #13
ID : 15
Format : VobSub
Muxing mode : zlib
Codec ID : S_VOBSUB
Codec ID/Info : Picture based subtitle format used on DVDs
Duration : 1 h 53 min
Bit rate : 3 953 b/s
Count of elements : 584
Stream size : 3.20 MiB (0%)
Language : Swedish
Default : No
Forced : No

Text #14
ID : 16
Format : VobSub
Muxing mode : zlib
Codec ID : S_VOBSUB
Codec ID/Info : Picture based subtitle format used on DVDs
Duration : 1 h 54 min
Bit rate : 3 327 b/s
Count of elements : 810
Stream size : 2.73 MiB (0%)
Language : Thai
Default : No
Forced : No

Menu
00:00:00.000 : en:Chapter 01
00:03:16.404 : en:Chapter 02
00:05:44.635 : en:Chapter 03
00:09:50.923 : en:Chapter 04
00:12:49.643 : en:Chapter 05
00:15:23.631 : en:Chapter 06
00:20:27.142 : en:Chapter 07
00:22:58.001 : en:Chapter 08
00:28:51.187 : en:Chapter 09
00:33:42.311 : en:Chapter 10
00:36:23.389 : en:Chapter 11
00:40:04.652 : en:Chapter 12
00:42:16.158 : en:Chapter 13
00:46:41.381 : en:Chapter 14
00:49:32.928 : en:Chapter 15
00:51:00.932 : en:Chapter 16
00:55:10.765 : en:Chapter 17
00:58:33.051 : en:Chapter 18
01:03:05.740 : en:Chapter 19
01:08:26.143 : en:Chapter 20
01:10:25.346 : en:Chapter 21
01:15:33.153 : en:Chapter 22
01:22:24.356 : en:Chapter 23
01:25:43.763 : en:Chapter 24
01:29:57.517 : en:Chapter 25
01:34:30.539 : en:Chapter 26
01:38:06.088 : en:Chapter 27
01:41:06.018 : en:Chapter 28
01:44:06.907 : en:Chapter 29
01:47:01.415 : en:Chapter 30
01:49:05.664 : en:Chapter 31

3 Responses

  1. user132 says:

    Please fix the link. 😉

Leave a Reply

Your email address will not be published. Required fields are marked *