Hugo (2011) | 720p & 1080p & 2160p BluRay x265-BvS

In 1931 Paris, an orphan living in the walls of a train station gets wrapped up in a mystery involving his late father and an automaton.

Links: iMDB | Trailer

Note: In English with English Selectable Subtitles

DOWNLOAD

VIP

This content is reserved for registered users. Sign up here o login to be able to see it. Buy your VIP membership

FREE

  • Hugo.2011.2160p.HYBRID.DV.WEB-DL.DTS-HD.MA.7.1.HEVC-AjA – 25GB (ONLY VIP)

NFO

Hugo.2011.2160p.HYBRID.DV.WEB-DL.DTS-HD.MA.7.1.HEVC-AjA

General
Unique ID : 78281663240556840559937894001645875705 (0x3AE47FFB9E51A305772E10E6016E71F9)
Complete name : Hugo.2011.2160p.HYBRID.DV.WEB-DL.DTS-HD.MA.7.1.HEVC-AjA.mkv
Format : Matroska
Format version : Version 4
File size : 26.0 GiB
Duration : 2 h 6 min
Overall bit rate mode : Variable
Overall bit rate : 29.5 Mb/s
Encoded date : UTC 2022-04-28 02:44:44
Writing application : mkvmerge v66.0.0 (‘Josie’) 64-bit
Writing library : libebml v1.4.2 + libmatroska v1.6.4

Video
ID : 1
Format : HEVC
Format/Info : High Efficiency Video Coding
Format profile : Main [email protected]@High
HDR format : Dolby Vision, Version 1.0, dvhe.05.06, BL+RPU
Codec ID : V_MPEGH/ISO/HEVC
Duration : 2 h 6 min
Bit rate : 24.2 Mb/s
Width : 3 840 pixels
Height : 2 154 pixels
Display aspect ratio : 16:9
Frame rate mode : Constant
Frame rate : 23.976 (24000/1001) FPS
Color space : YUV
Chroma subsampling : 4:2:0
Bit depth : 10 bits
Bits/(Pixel*Frame) : 0.122
Stream size : 21.3 GiB (82%)
Default : Yes
Forced : No

Audio #1
ID : 2
Format : DTS XLL
Format/Info : Digital Theater Systems
Commercial name : DTS-HD Master Audio
Codec ID : A_DTS
Duration : 2 h 6 min
Bit rate mode : Variable
Bit rate : 4 894 kb/s
Channel(s) : 8 channels
Channel layout : C L R LFE Lb Rb Lss Rss
Sampling rate : 48.0 kHz
Frame rate : 93.750 FPS (512 SPF)
Bit depth : 24 bits
Compression mode : Lossless
Stream size : 4.32 GiB (17%)
Language : English
Default : Yes
Forced : No

Audio #2
ID : 3
Format : AC-3
Format/Info : Audio Coding 3
Commercial name : Dolby Digital
Codec ID : A_AC3
Duration : 2 h 6 min
Bit rate mode : Constant
Bit rate : 384 kb/s
Channel(s) : 6 channels
Channel layout : L R C LFE Ls Rs
Sampling rate : 48.0 kHz
Frame rate : 31.250 FPS (1536 SPF)
Compression mode : Lossy
Stream size : 347 MiB (1%)
Title : British
Language : English
Service kind : Complete Main
Default : No
Forced : No

Text #1
ID : 4
Format : UTF-8
Codec ID : S_TEXT/UTF8
Codec ID/Info : UTF-8 Plain Text
Duration : 1 h 58 min
Bit rate : 44 b/s
Count of elements : 1171
Stream size : 38.4 KiB (0%)
Title : Arabic
Language : Arabic
Default : No
Forced : No

Text #2
ID : 5
Format : UTF-8
Codec ID : S_TEXT/UTF8
Codec ID/Info : UTF-8 Plain Text
Duration : 1 h 57 min
Bit rate : 30 b/s
Count of elements : 1133
Stream size : 26.3 KiB (0%)
Title : Chinese Mandarin Chinese Simplified
Language : Chinese
Default : No
Forced : No

Text #3
ID : 6
Format : UTF-8
Codec ID : S_TEXT/UTF8
Codec ID/Info : UTF-8 Plain Text
Duration : 1 h 57 min
Bit rate : 28 b/s
Count of elements : 956
Stream size : 24.7 KiB (0%)
Title : Chinese Mandarin Chinese Traditional
Language : Chinese
Default : No
Forced : No

Text #4
ID : 7
Format : UTF-8
Codec ID : S_TEXT/UTF8
Codec ID/Info : UTF-8 Plain Text
Duration : 1 h 57 min
Bit rate : 30 b/s
Count of elements : 938
Stream size : 26.7 KiB (0%)
Title : Czech
Language : Czech
Default : No
Forced : No

Text #5
ID : 8
Format : UTF-8
Codec ID : S_TEXT/UTF8
Codec ID/Info : UTF-8 Plain Text
Duration : 1 h 57 min
Bit rate : 33 b/s
Count of elements : 922
Stream size : 28.8 KiB (0%)
Title : Danish
Language : Danish
Default : No
Forced : No

Text #6
ID : 9
Format : UTF-8
Codec ID : S_TEXT/UTF8
Codec ID/Info : UTF-8 Plain Text
Duration : 1 h 59 min
Bit rate : 40 b/s
Count of elements : 1161
Stream size : 35.9 KiB (0%)
Title : English British (CC)
Language : English
Default : No
Forced : No

Text #7
ID : 10
Format : UTF-8
Codec ID : S_TEXT/UTF8
Codec ID/Info : UTF-8 Plain Text
Duration : 1 h 57 min
Bit rate : 33 b/s
Count of elements : 958
Stream size : 29.2 KiB (0%)
Title : Finnish
Language : Finnish
Default : No
Forced : No

Text #8
ID : 11
Format : UTF-8
Codec ID : S_TEXT/UTF8
Codec ID/Info : UTF-8 Plain Text
Duration : 1 h 59 min
Bit rate : 38 b/s
Count of elements : 982
Stream size : 33.5 KiB (0%)
Title : French Canadian
Language : French
Default : No
Forced : No

Text #9
ID : 12
Format : UTF-8
Codec ID : S_TEXT/UTF8
Codec ID/Info : UTF-8 Plain Text
Duration : 1 h 57 min
Bit rate : 39 b/s
Count of elements : 960
Stream size : 33.8 KiB (0%)
Title : French European
Language : French
Default : No
Forced : No

Text #10
ID : 13
Format : UTF-8
Codec ID : S_TEXT/UTF8
Codec ID/Info : UTF-8 Plain Text
Duration : 1 h 57 min
Bit rate : 44 b/s
Count of elements : 948
Stream size : 38.7 KiB (0%)
Title : Hebrew
Language : Hebrew
Default : No
Forced : No

Text #11
ID : 14
Format : UTF-8
Codec ID : S_TEXT/UTF8
Codec ID/Info : UTF-8 Plain Text
Duration : 1 h 57 min
Bit rate : 90 b/s
Count of elements : 974
Stream size : 78.1 KiB (0%)
Title : Hindi
Language : Hindi
Default : No
Forced : No

Text #12
ID : 15
Format : UTF-8
Codec ID : S_TEXT/UTF8
Codec ID/Info : UTF-8 Plain Text
Duration : 1 h 57 min
Bit rate : 34 b/s
Count of elements : 1127
Stream size : 30.0 KiB (0%)
Title : Indonesian
Language : Indonesian
Default : No
Forced : No

Text #13
ID : 16
Format : UTF-8
Codec ID : S_TEXT/UTF8
Codec ID/Info : UTF-8 Plain Text
Duration : 1 h 57 min
Bit rate : 33 b/s
Count of elements : 938
Stream size : 28.7 KiB (0%)
Title : Korean
Language : Korean
Default : No
Forced : No

Text #14
ID : 17
Format : UTF-8
Codec ID : S_TEXT/UTF8
Codec ID/Info : UTF-8 Plain Text
Duration : 1 h 57 min
Bit rate : 32 b/s
Count of elements : 859
Stream size : 28.2 KiB (0%)
Title : Dutch
Language : Dutch
Default : No
Forced : No

Text #15
ID : 18
Format : UTF-8
Codec ID : S_TEXT/UTF8
Codec ID/Info : UTF-8 Plain Text
Duration : 1 h 57 min
Bit rate : 28 b/s
Count of elements : 914
Stream size : 24.3 KiB (0%)
Title : Norwegian
Language : Norwegian
Default : No
Forced : No

Text #16
ID : 19
Format : UTF-8
Codec ID : S_TEXT/UTF8
Codec ID/Info : UTF-8 Plain Text
Duration : 1 h 57 min
Bit rate : 30 b/s
Count of elements : 950
Stream size : 26.2 KiB (0%)
Title : Polish
Language : Polish
Default : No
Forced : No

Text #17
ID : 20
Format : UTF-8
Codec ID : S_TEXT/UTF8
Codec ID/Info : UTF-8 Plain Text
Duration : 1 h 57 min
Bit rate : 33 b/s
Count of elements : 950
Stream size : 29.3 KiB (0%)
Title : Portuguese European
Language : Portuguese
Default : No
Forced : No

Text #18
ID : 21
Format : UTF-8
Codec ID : S_TEXT/UTF8
Codec ID/Info : UTF-8 Plain Text
Duration : 1 h 57 min
Bit rate : 60 b/s
Count of elements : 976
Stream size : 52.0 KiB (0%)
Title : Russian
Language : Russian
Default : No
Forced : No

Text #19
ID : 22
Format : UTF-8
Codec ID : S_TEXT/UTF8
Codec ID/Info : UTF-8 Plain Text
Duration : 1 h 57 min
Bit rate : 35 b/s
Count of elements : 976
Stream size : 30.7 KiB (0%)
Title : Slovak
Language : Slovak
Default : No
Forced : No

Text #20
ID : 23
Format : UTF-8
Codec ID : S_TEXT/UTF8
Codec ID/Info : UTF-8 Plain Text
Duration : 1 h 57 min
Bit rate : 33 b/s
Count of elements : 926
Stream size : 28.8 KiB (0%)
Title : Swedish
Language : Swedish
Default : No
Forced : No

Text #21
ID : 24
Format : UTF-8
Codec ID : S_TEXT/UTF8
Codec ID/Info : UTF-8 Plain Text
Duration : 1 h 57 min
Bit rate : 34 b/s
Count of elements : 1117
Stream size : 29.4 KiB (0%)
Title : Turkish
Language : Turkish
Default : No
Forced : No

Text #22
ID : 25
Format : UTF-8
Codec ID : S_TEXT/UTF8
Codec ID/Info : UTF-8 Plain Text
Duration : 1 h 57 min
Bit rate : 27 b/s
Count of elements : 1129
Stream size : 23.3 KiB (0%)
Title : Chinese Cantonese Traditional
Language : Chinese
Default : No
Forced : No

Menu
00:00:00.000 : en:Chapter 1
00:09:36.000 : en:Chapter 2
00:17:21.000 : en:Chapter 3
00:23:33.000 : en:Chapter 4
00:30:35.000 : en:Chapter 5
00:38:27.000 : en:Chapter 6
00:47:37.000 : en:Chapter 7
00:55:38.000 : en:Chapter 8
01:03:44.000 : en:Chapter 9
01:12:47.000 : en:Chapter 10
01:20:00.000 : en:Chapter 11
01:27:11.000 : en:Chapter 12
01:33:04.000 : en:Chapter 13
01:42:42.000 : en:Chapter 14
01:53:48.000 : en:Chapter 15
02:00:00.000 : en:Chapter 16

 

(He/Him) He's BvSRips. I dedicate myself to sharing files on this blog for free. But it is difficult to maintain the links online for a long time, they are denounced and deleted, reuploading costs more work, that is why a section for VIP users was created, where they can download all the files published 100% in MEGA, as premium, without spend more. I would greatly appreciate your collaboration so that this blog remains online for a longer time.

BUY VIP HERE

Leave a Reply

Your email address will not be published. Required fields are marked *