Hellboy (2004) | 720p & 1080p & 2160p BluRay x265-BvS

Hellboy (2004)

At the end of World War II, Nazi officers Karl Ruprecht Kroenen (Ladislav Beran) and Ilsa Haupstein (Biddy Hodson) start an experiment to raise the forces of Hell trough Russian dark mystic Rasputin (Karel Roden) on a Scottish island, but it’s interrupted by an allied commando guided by professor Trevor “Broom” Bruttenholm (Kevin Trainor). He prevents killing the human-demonic half-blood, which was accidentally created and raises this “Hellboy”, while rising to head of a secret C.I.A.-linked U.S. agency Bureau of Paranormal Research, which secretly studies and uses the occult, including supernatural freaks. As “father” Broom (Sir John Hurt) is aging, he hand-picks brilliant, sensitive Agent John Myers (Rupert Evans) as new minder-companion, as regular “warrior” Agent Clay (Corey Johnson) can’t empathize and lacks flexibility mental. Hellboy (Ron Perlman) is quite a handful, regularly spotted by worried civilians on unauthorized excursions, especially to pyro-telekinetic freak friend …

Links: iMDB | Trailer

Note: In English with English/German Selectable Subtitles

DOWNLOAD

VIP

This content is reserved for registered users. Sign up here o login to be able to see it. Buy your VIP membership

FREE

  • Hellboy.2004.2160p.BluRay.DV.HYBRID.REMUX.TrueHD.Atmos.7.1.HEVC-AjA – 45.2GB (ONLY VIP)

NFO

Hellboy.2004.2160p.BluRay.DV.HYBRID.REMUX.TrueHD.Atmos.7.1.HEVC-AjA

General
Unique ID : 107469213716827329763546783080005919769 (0x50D9D15374ED7986DEDF53F8B29E6419)
Complete name : Hellboy.2004.2160p.BluRay.DV.HYBRID.REMUX.TrueHD.Atmos.7.1.HEVC-AjA.mkv
Format : Matroska
Format version : Version 4
File size : 45.2 GiB
Duration : 2 h 1 min
Overall bit rate mode : Variable
Overall bit rate : 53.1 Mb/s
Encoded date : UTC 2022-05-03 03:30:31
Writing application : mkvmerge v66.0.0 (‘Josie’) 64-bit
Writing library : libebml v1.4.2 + libmatroska v1.6.4

Video
ID : 1
Format : HEVC
Format/Info : High Efficiency Video Coding
Format profile : Main [email protected]@High
HDR format : Dolby Vision, Version 1.0, dvhe.08.06, BL+RPU, HDR10 compatible / SMPTE ST 2086, HDR10 compatible
Codec ID : V_MPEGH/ISO/HEVC
Duration : 2 h 1 min
Bit rate : 48.4 Mb/s
Width : 3 840 pixels
Height : 2 160 pixels
Display aspect ratio : 16:9
Frame rate mode : Constant
Frame rate : 23.976 (24000/1001) FPS
Color space : YUV
Chroma subsampling : 4:2:0 (Type 2)
Bit depth : 10 bits
Bits/(Pixel*Frame) : 0.244
Stream size : 41.3 GiB (91%)
Default : Yes
Forced : No
Color range : Limited
Color primaries : BT.2020
Transfer characteristics : PQ
Matrix coefficients : BT.2020 non-constant
Mastering display color primaries : Display P3
Mastering display luminance : min: 0.0050 cd/m2, max: 4000 cd/m2
Maximum Content Light Level : 9121 cd/m2
Maximum Frame-Average Light Level : 1265 cd/m2

Audio #1
ID : 2
Format : MLP FBA 16-ch
Format/Info : Meridian Lossless Packing FBA with 16-channel presentation
Commercial name : Dolby TrueHD with Dolby Atmos
Codec ID : A_TRUEHD
Duration : 2 h 1 min
Bit rate mode : Variable
Bit rate : 3 165 kb/s
Maximum bit rate : 3 708 kb/s
Channel(s) : 8 channels
Channel layout : L R C LFE Ls Rs Lb Rb
Sampling rate : 48.0 kHz
Frame rate : 1 200.000 FPS (40 SPF)
Compression mode : Lossless
Stream size : 2.70 GiB (6%)
Title : TrueHD 7.1 Atmos
Language : English
Default : Yes
Forced : No
Number of dynamic objects : 11
Bed channel count : 1 channel
Bed channel configuration : LFE

Audio #2
ID : 3
Format : AC-3
Format/Info : Audio Coding 3
Commercial name : Dolby Digital
Codec ID : A_AC3
Duration : 2 h 1 min
Bit rate mode : Constant
Bit rate : 640 kb/s
Channel(s) : 6 channels
Channel layout : L R C LFE Ls Rs
Sampling rate : 48.0 kHz
Frame rate : 31.250 FPS (1536 SPF)
Compression mode : Lossy
Stream size : 558 MiB (1%)
Title : AC-3 5.1
Language : English
Service kind : Complete Main
Default : No
Forced : No

Audio #3
ID : 4
Format : AC-3
Format/Info : Audio Coding 3
Commercial name : Dolby Digital
Format settings : Dolby Surround
Codec ID : A_AC3
Duration : 2 h 1 min
Bit rate mode : Constant
Bit rate : 192 kb/s
Channel(s) : 2 channels
Channel layout : L R
Sampling rate : 48.0 kHz
Frame rate : 31.250 FPS (1536 SPF)
Compression mode : Lossy
Stream size : 167 MiB (0%)
Title : Commentary with actors Jeffrey Tambor, Ron Perlman, Selma Blair and Rupert Evans
Language : English
Service kind : Complete Main
Default : No
Forced : No

Audio #4
ID : 5
Format : AC-3
Format/Info : Audio Coding 3
Commercial name : Dolby Digital
Format settings : Dolby Surround
Codec ID : A_AC3
Duration : 2 h 1 min
Bit rate mode : Constant
Bit rate : 192 kb/s
Channel(s) : 2 channels
Channel layout : L R
Sampling rate : 48.0 kHz
Frame rate : 31.250 FPS (1536 SPF)
Compression mode : Lossy
Stream size : 167 MiB (0%)
Title : Commentary with director Guillermo del Toro and Hellboy creator Mike Mignola
Language : English
Service kind : Complete Main
Default : No
Forced : No

Text #1
ID : 6
Format : PGS
Muxing mode : zlib
Codec ID : S_HDMV/PGS
Codec ID/Info : Picture based subtitle format used on BDs/HD-DVDs
Duration : 3 min 41 s
Bit rate : 2 122 b/s
Count of elements : 8
Stream size : 57.5 KiB (0%)
Title : English (forced)
Language : English
Default : Yes
Forced : No

Text #2
ID : 7
Format : PGS
Muxing mode : zlib
Codec ID : S_HDMV/PGS
Codec ID/Info : Picture based subtitle format used on BDs/HD-DVDs
Duration : 1 h 54 min
Bit rate : 20.7 kb/s
Count of elements : 2187
Stream size : 17.0 MiB (0%)
Title : English (SDH)
Language : English
Default : No
Forced : No

Text #3
ID : 8
Format : PGS
Muxing mode : zlib
Codec ID : S_HDMV/PGS
Codec ID/Info : Picture based subtitle format used on BDs/HD-DVDs
Duration : 1 h 54 min
Bit rate : 25.4 kb/s
Count of elements : 2725
Stream size : 20.9 MiB (0%)
Title : English
Language : English
Default : No
Forced : No

Text #4
ID : 9
Format : PGS
Muxing mode : zlib
Codec ID : S_HDMV/PGS
Codec ID/Info : Picture based subtitle format used on BDs/HD-DVDs
Duration : 1 h 55 min
Bit rate : 11.0 kb/s
Count of elements : 2251
Stream size : 9.02 MiB (0%)
Title : Arabic
Language : Arabic
Default : No
Forced : No

Text #5
ID : 10
Format : PGS
Muxing mode : zlib
Codec ID : S_HDMV/PGS
Codec ID/Info : Picture based subtitle format used on BDs/HD-DVDs
Duration : 1 h 55 min
Bit rate : 19.0 kb/s
Count of elements : 1875
Stream size : 15.6 MiB (0%)
Title : Bulgarian
Language : Bulgarian
Default : No
Forced : No

Text #6
ID : 11
Format : PGS
Muxing mode : zlib
Codec ID : S_HDMV/PGS
Codec ID/Info : Picture based subtitle format used on BDs/HD-DVDs
Duration : 1 h 55 min
Bit rate : 17.3 kb/s
Count of elements : 2253
Stream size : 14.2 MiB (0%)
Title : Chinese
Language : Chinese
Default : No
Forced : No

Text #7
ID : 12
Format : PGS
Muxing mode : zlib
Codec ID : S_HDMV/PGS
Codec ID/Info : Picture based subtitle format used on BDs/HD-DVDs
Duration : 1 h 55 min
Bit rate : 19.8 kb/s
Count of elements : 2211
Stream size : 16.3 MiB (0%)
Title : Czech
Language : Czech
Default : No
Forced : No

Text #8
ID : 13
Format : PGS
Muxing mode : zlib
Codec ID : S_HDMV/PGS
Codec ID/Info : Picture based subtitle format used on BDs/HD-DVDs
Duration : 2 h 1 min
Bit rate : 19.7 kb/s
Count of elements : 2151
Stream size : 17.1 MiB (0%)
Title : Danish
Language : Danish
Default : No
Forced : No

Text #9
ID : 14
Format : PGS
Muxing mode : zlib
Codec ID : S_HDMV/PGS
Codec ID/Info : Picture based subtitle format used on BDs/HD-DVDs
Duration : 1 h 55 min
Bit rate : 18.7 kb/s
Count of elements : 1403
Stream size : 15.4 MiB (0%)
Title : Estonian
Language : Estonian
Default : No
Forced : No

Text #10
ID : 15
Format : PGS
Muxing mode : zlib
Codec ID : S_HDMV/PGS
Codec ID/Info : Picture based subtitle format used on BDs/HD-DVDs
Duration : 2 h 1 min
Bit rate : 18.1 kb/s
Count of elements : 1765
Stream size : 15.7 MiB (0%)
Title : Finnish
Language : Finnish
Default : No
Forced : No

Text #11
ID : 16
Format : PGS
Muxing mode : zlib
Codec ID : S_HDMV/PGS
Codec ID/Info : Picture based subtitle format used on BDs/HD-DVDs
Duration : 1 h 55 min
Bit rate : 22.3 kb/s
Count of elements : 2245
Stream size : 18.4 MiB (0%)
Title : German
Language : German
Default : No
Forced : No

Text #12
ID : 17
Format : PGS
Muxing mode : zlib
Codec ID : S_HDMV/PGS
Codec ID/Info : Picture based subtitle format used on BDs/HD-DVDs
Duration : 1 h 55 min
Bit rate : 21.9 kb/s
Count of elements : 2191
Stream size : 18.0 MiB (0%)
Title : Modern Greek
Language : Greek
Default : No
Forced : No

Text #13
ID : 18
Format : PGS
Muxing mode : zlib
Codec ID : S_HDMV/PGS
Codec ID/Info : Picture based subtitle format used on BDs/HD-DVDs
Duration : 1 h 55 min
Bit rate : 16.6 kb/s
Count of elements : 2233
Stream size : 13.6 MiB (0%)
Title : Hebrew
Language : Hebrew
Default : No
Forced : No

Text #14
ID : 19
Format : PGS
Muxing mode : zlib
Codec ID : S_HDMV/PGS
Codec ID/Info : Picture based subtitle format used on BDs/HD-DVDs
Duration : 1 h 55 min
Bit rate : 18.9 kb/s
Count of elements : 2195
Stream size : 15.5 MiB (0%)
Title : Hungarian
Language : Hungarian
Default : No
Forced : No

Text #15
ID : 20
Format : PGS
Muxing mode : zlib
Codec ID : S_HDMV/PGS
Codec ID/Info : Picture based subtitle format used on BDs/HD-DVDs
Duration : 1 h 55 min
Bit rate : 20.8 kb/s
Count of elements : 2125
Stream size : 17.1 MiB (0%)
Title : Icelandic
Language : Icelandic
Default : No
Forced : No

Text #16
ID : 21
Format : PGS
Muxing mode : zlib
Codec ID : S_HDMV/PGS
Codec ID/Info : Picture based subtitle format used on BDs/HD-DVDs
Duration : 1 h 55 min
Bit rate : 14.9 kb/s
Count of elements : 2253
Stream size : 12.2 MiB (0%)
Title : Korean
Language : Korean
Default : No
Forced : No

Text #17
ID : 22
Format : PGS
Muxing mode : zlib
Codec ID : S_HDMV/PGS
Codec ID/Info : Picture based subtitle format used on BDs/HD-DVDs
Duration : 1 h 55 min
Bit rate : 19.4 kb/s
Count of elements : 1953
Stream size : 15.9 MiB (0%)
Title : Latvian
Language : Latvian
Default : No
Forced : No

Text #18
ID : 23
Format : PGS
Muxing mode : zlib
Codec ID : S_HDMV/PGS
Codec ID/Info : Picture based subtitle format used on BDs/HD-DVDs
Duration : 1 h 55 min
Bit rate : 21.0 kb/s
Count of elements : 2250
Stream size : 17.3 MiB (0%)
Title : Lithuanian
Language : Lithuanian
Default : No
Forced : No

Text #19
ID : 24
Format : PGS
Muxing mode : zlib
Codec ID : S_HDMV/PGS
Codec ID/Info : Picture based subtitle format used on BDs/HD-DVDs
Duration : 2 h 1 min
Bit rate : 19.0 kb/s
Count of elements : 2245
Stream size : 16.5 MiB (0%)
Title : Norwegian
Language : Norwegian
Default : No
Forced : No

Text #20
ID : 25
Format : PGS
Muxing mode : zlib
Codec ID : S_HDMV/PGS
Codec ID/Info : Picture based subtitle format used on BDs/HD-DVDs
Duration : 2 h 1 min
Bit rate : 19.1 kb/s
Count of elements : 2227
Stream size : 16.5 MiB (0%)
Title : Polish
Language : Polish
Default : No
Forced : No

Text #21
ID : 26
Format : PGS
Muxing mode : zlib
Codec ID : S_HDMV/PGS
Codec ID/Info : Picture based subtitle format used on BDs/HD-DVDs
Duration : 2 h 1 min
Bit rate : 21.0 kb/s
Count of elements : 2242
Stream size : 18.2 MiB (0%)
Title : Portuguese
Language : Portuguese
Default : No
Forced : No

Text #22
ID : 27
Format : PGS
Muxing mode : zlib
Codec ID : S_HDMV/PGS
Codec ID/Info : Picture based subtitle format used on BDs/HD-DVDs
Duration : 1 h 55 min
Bit rate : 19.4 kb/s
Count of elements : 2205
Stream size : 16.0 MiB (0%)
Title : Romanian
Language : Romanian
Default : No
Forced : No

Text #23
ID : 28
Format : PGS
Muxing mode : zlib
Codec ID : S_HDMV/PGS
Codec ID/Info : Picture based subtitle format used on BDs/HD-DVDs
Duration : 1 h 55 min
Bit rate : 20.2 kb/s
Count of elements : 2225
Stream size : 16.6 MiB (0%)
Title : Russian
Language : Russian
Default : No
Forced : No

Text #24
ID : 29
Format : PGS
Muxing mode : zlib
Codec ID : S_HDMV/PGS
Codec ID/Info : Picture based subtitle format used on BDs/HD-DVDs
Duration : 2 h 1 min
Bit rate : 17.8 kb/s
Count of elements : 2225
Stream size : 15.4 MiB (0%)
Title : Slovenian
Language : Slovenian
Default : No
Forced : No

Text #25
ID : 30
Format : PGS
Muxing mode : zlib
Codec ID : S_HDMV/PGS
Codec ID/Info : Picture based subtitle format used on BDs/HD-DVDs
Duration : 2 h 1 min
Bit rate : 19.1 kb/s
Count of elements : 2243
Stream size : 16.6 MiB (0%)
Title : Swedish
Language : Swedish
Default : No
Forced : No

Text #26
ID : 31
Format : PGS
Muxing mode : zlib
Codec ID : S_HDMV/PGS
Codec ID/Info : Picture based subtitle format used on BDs/HD-DVDs
Duration : 1 h 55 min
Bit rate : 21.2 kb/s
Count of elements : 2251
Stream size : 17.5 MiB (0%)
Title : Thai
Language : Thai
Default : No
Forced : No

Text #27
ID : 32
Format : PGS
Muxing mode : zlib
Codec ID : S_HDMV/PGS
Codec ID/Info : Picture based subtitle format used on BDs/HD-DVDs
Duration : 1 h 55 min
Bit rate : 20.6 kb/s
Count of elements : 2223
Stream size : 17.0 MiB (0%)
Title : Turkish
Language : Turkish
Default : No
Forced : No

Text #28
ID : 33
Format : PGS
Muxing mode : zlib
Codec ID : S_HDMV/PGS
Codec ID/Info : Picture based subtitle format used on BDs/HD-DVDs
Duration : 1 h 55 min
Bit rate : 81.5 kb/s
Count of elements : 4913
Stream size : 67.6 MiB (0%)
Title : Commentary with actors Jeffrey Tambor, Ron Perlman, Selma Blair and Rupert Evans
Language : English
Default : No
Forced : No

Text #29
ID : 34
Format : PGS
Muxing mode : zlib
Codec ID : S_HDMV/PGS
Codec ID/Info : Picture based subtitle format used on BDs/HD-DVDs
Duration : 1 h 55 min
Bit rate : 70.9 kb/s
Count of elements : 4640
Stream size : 58.8 MiB (0%)
Title : Commentary with actors Jeffrey Tambor, Ron Perlman, Selma Blair and Rupert Evans
Language : German
Default : No
Forced : No

Text #30
ID : 35
Format : PGS
Muxing mode : zlib
Codec ID : S_HDMV/PGS
Codec ID/Info : Picture based subtitle format used on BDs/HD-DVDs
Duration : 2 h 0 min
Bit rate : 73.0 kb/s
Count of elements : 4323
Stream size : 63.1 MiB (0%)
Title : Commentary with director Guillermo del Toro and Hellboy creator Mike Mignola
Language : English
Default : No
Forced : No

Text #31
ID : 36
Format : PGS
Muxing mode : zlib
Codec ID : S_HDMV/PGS
Codec ID/Info : Picture based subtitle format used on BDs/HD-DVDs
Duration : 2 h 0 min
Bit rate : 74.0 kb/s
Count of elements : 4577
Stream size : 64.0 MiB (0%)
Title : Commentary with director Guillermo del Toro and Hellboy creator Mike Mignola
Language : German
Default : No
Forced : No

Menu
00:00:00.000 : en:Chapter 01
00:06:42.693 : en:Chapter 02
00:14:38.002 : en:Chapter 03
00:22:50.035 : en:Chapter 04
00:31:06.573 : en:Chapter 05
00:40:08.948 : en:Chapter 06
00:47:42.067 : en:Chapter 07
00:53:32.792 : en:Chapter 08
01:00:00.638 : en:Chapter 09
01:03:57.291 : en:Chapter 10
01:10:57.336 : en:Chapter 11
01:18:40.841 : en:Chapter 12
01:27:56.771 : en:Chapter 13
01:34:50.142 : en:Chapter 14
01:39:44.478 : en:Chapter 15
01:48:09.357 : en:Chapter 16

 

(He/Him) He's BvSRips. I dedicate myself to sharing files on this blog for free. But it is difficult to maintain the links online for a long time, they are denounced and deleted, reuploading costs more work, that is why a section for VIP users was created, where they can download all the files published 100% in MEGA, as premium, without spend more. I would greatly appreciate your collaboration so that this blog remains online for a longer time.

BUY VIP HERE

Leave a Reply

Your email address will not be published. Required fields are marked *