Harry Potter | 720p & 1080p & 2160p BluRay x265-BvS

harry-potter

An orphaned boy named Harry Potter discovers on his 11th birthday, that his deceased parents were powerful wizards and that he has been invited to attend the esteemed and mysterious Hogwarts School of Witchcraft and Wizardry, which opens up a world of wonders for young Harry.

Links: IMDB  – Trailer

Note: In English with English Selectable Subtitles

DOWNLOAD

VIP

This content is reserved for registered users. Sign up here o login to be able to see it. Buy your VIP membership

FREE

  • Harry Potter and the Chamber of Secrets (2002) (2160p BluRay x265 10bit HDR Tigole) (ONLY VIP)  
  • Harry Potter and the Deathly Hallows – Part 1 (2010) (2160p BluRay x265 10bit HDR Tigole) (ONLY VIP)  
  • Harry Potter and the Deathly Hallows – Part 2 (2011) (2160p BluRay x265 10bit HDR Tigole) (ONLY VIP)
  • Harry Potter and the Goblet of Fire (2005) (2160p BluRay x265 10bit HDR Tigole) (ONLY VIP)
  • Harry Potter and the Half-Blood Prince (2009) (2160p BluRay x265 10bit HDR Tigole) (ONLY VIP)
  • Harry Potter and the Order of the Phoenix (2007) (2160p BluRay x265 10bit HDR Tigole) (ONLY VIP)
  • Harry Potter and the Prisoner of Azkaban (2004) (2160p BluRay x265 10bit HDR Tigole) (ONLY VIP)
  • Harry Potter and the Sorcerer’s Stone (2001) (2160p BluRay x265 10bit HDR Tigole) (ONLY VIP)

NFO

Harry Potter and the Deathly Hallows - Part 1 (2010) (2160p BluRay x265 10bit HDR Tigole)

General
Unique ID : 173436377038052768280658800365139722992 (0x827AA19637425A3C88863FAB676D02F0)
Complete name : Harry Potter and the Deathly Hallows – Part 1 (2010) (2160p BluRay x265 10bit HDR Tigole).mkv
Format : Matroska
Format version : Version 4
File size : 13.9 GiB
Duration : 2 h 26 min
Overall bit rate : 13.7 Mb/s
Movie name : Harry Potter and the Deathly Hallows – Part 1
Encoded date : UTC 2018-08-29 19:15:51
Writing application : mkvmerge v26.0.0 (‘In The Game’) 64-bit
Writing library : libebml v1.3.6 + libmatroska v1.4.9

Video
ID : 1
Format : HEVC
Format/Info : High Efficiency Video Coding
Format profile : Main [email protected]@Main
HDR format : SMPTE ST 2086, HDR10 compatible
Codec ID : V_MPEGH/ISO/HEVC
Duration : 2 h 26 min
Bit rate : 12.9 Mb/s
Width : 3 840 pixels
Height : 1 600 pixels
Display aspect ratio : 2.40:1
Frame rate mode : Constant
Frame rate : 23.976 (24000/1001) FPS
Color space : YUV
Chroma subsampling : 4:2:0
Bit depth : 10 bits
Bits/(Pixel*Frame) : 0.088
Stream size : 13.2 GiB (94%)
Writing library : x265 2.8+40-0106f9f2f867:[Windows][GCC 7.3.0][64 bit] 10bit
Encoding settings : cpuid=1111039 / frame-threads=3 / numa-pools=8 / wpp / no-pmode / no-pme / no-psnr / no-ssim / log-level=2 / input-csp=1 / input-res=3840×1600 / interlace=0 / total-frames=210156 / level-idc=0 / high-tier=1 / uhd-bd=0 / ref=4 / no-allow-non-conformance / repeat-headers / annexb / no-aud / no-hrd / info / hash=0 / no-temporal-layers / open-gop / min-keyint=23 / keyint=250 / gop-lookahead=0 / bframes=4 / b-adapt=2 / b-pyramid / bframe-bias=0 / rc-lookahead=25 / lookahead-slices=4 / scenecut=40 / radl=0 / no-intra-refresh / ctu=64 / min-cu-size=8 / rect / no-amp / max-tu-size=32 / tu-inter-depth=1 / tu-intra-depth=1 / limit-tu=0 / rdoq-level=2 / dynamic-rd=0.00 / no-ssim-rd / signhide / no-tskip / nr-intra=0 / nr-inter=0 / no-constrained-intra / strong-intra-smoothing / max-merge=3 / limit-refs=3 / limit-modes / me=3 / subme=3 / merange=57 / temporal-mvp / weightp / no-weightb / no-analyze-src-pics / deblock=0:0 / sao / no-sao-non-deblock / rd=4 / no-early-skip / rskip / no-fast-intra / no-tskip-fast / no-cu-lossless / no-b-intra / no-splitrd-skip / rdpenalty=0 / psy-rd=2.00 / psy-rdoq=1.00 / no-rd-refine / no-lossless / cbqpoffs=0 / crqpoffs=0 / rc=crf / crf=18.0 / qcomp=0.60 / qpstep=4 / stats-write=0 / stats-read=0 / ipratio=1.40 / pbratio=1.30 / aq-mode=3 / aq-strength=1.00 / cutree / zone-count=0 / no-strict-cbr / qg-size=32 / no-rc-grain / qpmax=69 / qpmin=0 / no-const-vbv / sar=0 / overscan=0 / videoformat=5 / range=0 / colorprim=9 / transfer=16 / colormatrix=9 / chromaloc=0 / display-window=0 / master-display=G(13250,34500)B(7500,3000)R(34000,16000)WP(15635,16450)L(40000000,50) / max-cll=2632,431 / min-luma=0 / max-luma=1023 / log2-max-poc-lsb=8 / vui-timing-info / vui-hrd-info / slices=1 / no-opt-qp-pps / no-opt-ref-list-length-pps / no-multi-pass-opt-rps / scenecut-bias=0.05 / no-opt-cu-delta-qp / aq-motion / hdr / hdr-opt / no-dhdr10-opt / no-idr-recovery-sei / analysis-reuse-level=5 / scale-factor=0 / refine-intra=0 / refine-inter=0 / refine-mv=0 / no-limit-sao / ctu-info=0 / no-lowpass-dct / refine-mv-type=0 / copy-pic=1 / max-ausize-factor=1.0 / no-dynamic-refine / no-single-sei
Default : Yes
Forced : No
Color range : Limited
Color primaries : BT.2020
Transfer characteristics : PQ
Matrix coefficients : BT.2020 non-constant
Mastering display color primaries : Display P3
Mastering display luminance : min: 0.0050 cd/m2, max: 4000 cd/m2
Maximum Content Light Level : 2632 cd/m2
Maximum Frame-Average Light Level : 431 cd/m2

Audio
ID : 2
Format : AAC LC
Format/Info : Advanced Audio Codec Low Complexity
Codec ID : A_AAC-2
Duration : 2 h 26 min
Bit rate : 743 kb/s
Channel(s) : 8 channels
Channel layout : C L R Ls Rs Lb Rb LFE
Sampling rate : 48.0 kHz
Frame rate : 46.875 FPS (1024 SPF)
Compression mode : Lossy
Delay relative to video : 20 ms
Stream size : 776 MiB (5%)
Language : English
Default : Yes
Forced : No

Text #1
ID : 3
Format : VobSub
Muxing mode : zlib
Codec ID : S_VOBSUB
Codec ID/Info : Picture based subtitle format used on DVDs
Duration : 2 h 25 min
Bit rate : 8 128 b/s
Count of elements : 1446
Stream size : 8.47 MiB (0%)
Language : English
Default : No
Forced : No

Text #2
ID : 4
Format : VobSub
Muxing mode : zlib
Codec ID : S_VOBSUB
Codec ID/Info : Picture based subtitle format used on DVDs
Duration : 2 h 25 min
Bit rate : 6 293 b/s
Count of elements : 1246
Stream size : 6.55 MiB (0%)
Language : Spanish
Default : No
Forced : No

Menu
00:00:00.000 : en:Chapter 01
00:04:18.383 : en:Chapter 02
00:09:46.377 : en:Chapter 03
00:15:16.123 : en:Chapter 04
00:19:13.944 : en:Chapter 05
00:26:04.145 : en:Chapter 06
00:31:37.395 : en:Chapter 07
00:35:43.224 : en:Chapter 08
00:41:37.953 : en:Chapter 09
00:45:45.534 : en:Chapter 10
00:50:13.844 : en:Chapter 11
00:55:02.632 : en:Chapter 12
00:58:30.965 : en:Chapter 13
01:03:41.067 : en:Chapter 14
01:10:01.780 : en:Chapter 15
01:14:30.841 : en:Chapter 16
01:18:48.598 : en:Chapter 17
01:22:17.515 : en:Chapter 18
01:24:55.006 : en:Chapter 19
01:28:03.111 : en:Chapter 20
01:32:34.090 : en:Chapter 21
01:37:40.145 : en:Chapter 22
01:42:37.484 : en:Chapter 23
01:47:54.050 : en:Chapter 24
01:53:48.029 : en:Chapter 25
01:57:30.668 : en:Chapter 26
02:01:27.905 : en:Chapter 27
02:05:42.076 : en:Chapter 28
02:09:42.649 : en:Chapter 29
02:13:15.904 : en:Chapter 30

Leave a Reply

Your email address will not be published. Required fields are marked *