| 720p & 1080p & 2160p BluRay x265-BvS

Goldfinger (1964)

While investigating a gold magnate’s smuggling, James Bond uncovers a plot to contaminate the Fort Knox gold reserve.

Links: IMDB  – Trailer

Note: In English with English/French/Portuguese/Spanish Selectable Subtitles

DOWNLOAD

VIP

This content is reserved for registered users. Sign up here o login to be able to see it. Buy your VIP membership

FREE

  • Goldfinger.1964.2160p.WEB-DL.DTS-HD.MA.5.1.HEVC-AjA – 11.70GB (ONLY VIP)

NFO

Goldfinger.1964.2160p.WEB-DL.DTS-HD.MA.5.1.HEVC-AjA

General
Unique ID : 33606830330162913069226699265978305254 (0x194870A988A5D3E6162EBFFD8C0E8AE6)
Complete name : Goldfinger.1964.2160p.WEB-DL.DTS-HD.MA.5.1.HEVC-AjA.mkv
Format : Matroska
Format version : Version 4
File size : 11.8 GiB
Duration : 1 h 50 min
Overall bit rate mode : Variable
Overall bit rate : 15.3 Mb/s
Movie name : Goldfinger (1964)
Encoded date : UTC 2022-05-05 19:47:16
Writing application : mkvmerge v66.0.0 (‘Josie’) 64-bit
Writing library : libebml v1.4.2 + libmatroska v1.6.4

Video
ID : 1
Format : HEVC
Format/Info : High Efficiency Video Coding
Format profile : Main [email protected]@High
Codec ID : V_MPEGH/ISO/HEVC
Duration : 1 h 50 min
Bit rate : 12.0 Mb/s
Width : 3 592 pixels
Height : 2 160 pixels
Display aspect ratio : 5:3
Frame rate mode : Constant
Frame rate : 23.976 (23976/1000) FPS
Color space : YUV
Chroma subsampling : 4:2:0
Bit depth : 10 bits
Bits/(Pixel*Frame) : 0.065
Stream size : 9.24 GiB (79%)
Default : Yes
Forced : No
Color range : Limited
Color primaries : BT.709
Transfer characteristics : BT.709
Matrix coefficients : BT.709

Audio #1
ID : 2
Format : DTS XLL
Format/Info : Digital Theater Systems
Commercial name : DTS-HD Master Audio
Codec ID : A_DTS
Duration : 1 h 50 min
Bit rate mode : Variable
Bit rate : 2 900 kb/s
Channel(s) : 6 channels
Channel layout : C L R Ls Rs LFE
Sampling rate : 48.0 kHz
Frame rate : 93.750 FPS (512 SPF)
Bit depth : 24 bits
Compression mode : Lossless
Delay relative to video : 4 s 964 ms
Stream size : 2.23 GiB (19%)
Language : English
Default : Yes
Forced : No

Audio #2
ID : 3
Format : AC-3
Format/Info : Audio Coding 3
Commercial name : Dolby Digital
Codec ID : A_AC3
Duration : 1 h 50 min
Bit rate mode : Constant
Bit rate : 384 kb/s
Channel(s) : 6 channels
Channel layout : L R C LFE Ls Rs
Sampling rate : 48.0 kHz
Frame rate : 31.250 FPS (1536 SPF)
Compression mode : Lossy
Stream size : 302 MiB (3%)
Title : British
Language : English
Service kind : Complete Main
Default : No
Forced : No

Text #1
ID : 4
Format : UTF-8
Codec ID : S_TEXT/UTF8
Codec ID/Info : UTF-8 Plain Text
Duration : 1 h 45 min
Bit rate : 39 b/s
Count of elements : 933
Stream size : 30.9 KiB (0%)
Language : English
Default : No
Forced : No

Text #2
ID : 5
Format : UTF-8
Codec ID : S_TEXT/UTF8
Codec ID/Info : UTF-8 Plain Text
Duration : 1 h 47 min
Bit rate : 38 b/s
Count of elements : 927
Stream size : 30.3 KiB (0%)
Title : Latin American
Language : Spanish
Default : No
Forced : No

Text #3
ID : 6
Format : UTF-8
Codec ID : S_TEXT/UTF8
Codec ID/Info : UTF-8 Plain Text
Duration : 1 h 46 min
Bit rate : 33 b/s
Count of elements : 938
Stream size : 25.9 KiB (0%)
Language : French
Default : No
Forced : No

Text #4
ID : 7
Format : UTF-8
Codec ID : S_TEXT/UTF8
Codec ID/Info : UTF-8 Plain Text
Duration : 1 h 45 min
Bit rate : 37 b/s
Count of elements : 770
Stream size : 29.3 KiB (0%)
Title : Brazilian
Language : Portuguese
Default : No
Forced : No

Menu
00:00:04.964 : :Chapter01
00:03:24.163 : :Chapter02
00:05:07.641 : :Chapter03
00:07:54.182 : :Chapter04
00:08:58.079 : :Chapter05
00:10:01.560 : :Chapter06
00:11:39.699 : :Chapter07
00:16:00.043 : :Chapter08
00:18:01.914 : :Chapter09
00:22:44.071 : :Chapter10
00:25:23.522 : :Chapter11
00:31:30.597 : :Chapter12
00:33:42.187 : :Chapter13
00:36:46.329 : :Chapter14
00:40:46.486 : :Chapter15
00:43:04.624 : :Chapter16
00:47:53.538 : :Chapter17
00:50:16.764 : :Chapter18
00:54:14.084 : :Chapter19
00:56:39.146 : :Chapter20
01:00:17.531 : :Chapter21
01:03:01.236 : :Chapter22
01:04:50.178 : :Chapter23
01:06:52.217 : :Chapter24
01:09:55.233 : :Chapter25
01:13:09.719 : :Chapter26
01:14:49.902 : :Chapter27
01:20:45.800 : :Chapter28
01:25:06.101 : :Chapter29
01:27:58.815 : :Chapter30
01:38:05.547 : :Chapter31
01:45:34.495 : :Chapter32
01:50:05.891 : :Chapter33

 

(He/Him) He's BvSRips. I dedicate myself to sharing files on this blog for free. But it is difficult to maintain the links online for a long time, they are denounced and deleted, reuploading costs more work, that is why a section for VIP users was created, where they can download all the files published 100% in MEGA, as premium, without spend more. I would greatly appreciate your collaboration so that this blog remains online for a longer time.

BUY VIP HERE

Leave a Reply

Your email address will not be published. Required fields are marked *