GoldenEye (1995) | 720p & 1080p & 2160p BluRay x265-BvS

GoldenEye (1995)

Years after a friend and fellow 00 agent is killed on a joint mission, a secret space based weapons program known as “GoldenEye” is stolen. James Bond sets out to stop a Russian crime syndicate from using the weapon.

Links: iMDB | Trailer

Note: In English with English Selectable Subtitles

DOWNLOAD

VIP

This content is reserved for registered users. Sign up here o login to be able to see it. Buy your VIP membership

FREE

  • GoldenEye.1995.2160p.HYBRID.WEB-DL.DTS-HD.MA.5.1.HEVC-AjA – 23GB (ONLY VIP)

NFO

GoldenEye.1995.2160p.HYBRID.WEB-DL.DTS-HD.MA.5.1.HEVC-AjA

General
Unique ID : 28070844663059648553227604865575620410 (0x151E3F7EE646915DDC5D27A368CD0F3A)
Complete name : GoldenEye.1995.2160p.HYBRID.WEB-DL.DTS-HD.MA.5.1.HEVC-AjA.mkv
Format : Matroska
Format version : Version 4
File size : 23.1 GiB
Duration : 2 h 10 min
Overall bit rate mode : Variable
Overall bit rate : 25.4 Mb/s
Movie name : GoldenEye (1995)
Encoded date : UTC 2022-04-28 01:29:02
Writing application : mkvmerge v66.0.0 (‘Josie’) 64-bit
Writing library : libebml v1.4.2 + libmatroska v1.6.4

Video
ID : 1
Format : HEVC
Format/Info : High Efficiency Video Coding
Format profile : Main [email protected]@High
Codec ID : V_MPEGH/ISO/HEVC
Duration : 2 h 10 min
Bit rate : 20.7 Mb/s
Width : 3 840 pixels
Height : 1 634 pixels
Display aspect ratio : 2.35:1
Frame rate mode : Constant
Frame rate : 23.976 FPS
Color space : YUV
Chroma subsampling : 4:2:0
Bit depth : 10 bits
Bits/(Pixel*Frame) : 0.137
Stream size : 18.8 GiB (81%)
Default : Yes
Forced : No
Color range : Limited
Color primaries : BT.709
Transfer characteristics : BT.709
Matrix coefficients : BT.709

Audio #1
ID : 2
Format : AC-3
Format/Info : Audio Coding 3
Commercial name : Dolby Digital
Codec ID : A_AC3
Duration : 2 h 10 min
Bit rate mode : Constant
Bit rate : 384 kb/s
Channel(s) : 6 channels
Channel layout : L R C LFE Ls Rs
Sampling rate : 48.0 kHz
Frame rate : 31.250 FPS (1536 SPF)
Compression mode : Lossy
Stream size : 357 MiB (2%)
Title : British
Language : English
Service kind : Complete Main
Default : No
Forced : No

Audio #2
ID : 3
Format : DTS XLL
Format/Info : Digital Theater Systems
Commercial name : DTS-HD Master Audio
Codec ID : A_DTS
Duration : 2 h 10 min
Bit rate mode : Variable
Bit rate : 4 328 kb/s
Channel(s) : 6 channels
Channel layout : C L R Ls Rs LFE
Sampling rate : 48.0 kHz
Frame rate : 93.750 FPS (512 SPF)
Bit depth : 24 bits
Compression mode : Lossless
Delay relative to video : 3 ms
Stream size : 3.93 GiB (17%)
Title : DTS-HD Master Audio 5.1
Language : English
Default : Yes
Forced : No

Text #1
ID : 4
Format : UTF-8
Codec ID : S_TEXT/UTF8
Codec ID/Info : UTF-8 Plain Text
Duration : 2 h 6 min
Bit rate : 37 b/s
Count of elements : 1192
Stream size : 35.0 KiB (0%)
Title : English British (CC)
Language : English
Default : No
Forced : No

Text #2
ID : 5
Format : UTF-8
Codec ID : S_TEXT/UTF8
Codec ID/Info : UTF-8 Plain Text
Duration : 2 h 2 min
Bit rate : 34 b/s
Count of elements : 817
Stream size : 30.9 KiB (0%)
Title : English
Language : English
Default : No
Forced : No

Text #3
ID : 6
Format : UTF-8
Codec ID : S_TEXT/UTF8
Codec ID/Info : UTF-8 Plain Text
Duration : 2 h 7 min
Bit rate : 55 b/s
Count of elements : 812
Stream size : 51.6 KiB (0%)
Title : Bulgarian
Language : Bulgarian
Default : No
Forced : No

Text #4
ID : 7
Format : UTF-8
Codec ID : S_TEXT/UTF8
Codec ID/Info : UTF-8 Plain Text
Duration : 2 h 7 min
Bit rate : 26 b/s
Count of elements : 994
Stream size : 24.7 KiB (0%)
Title : Chinese Mandarin Chinese Traditional
Language : Chinese
Default : No
Forced : No

Text #5
ID : 8
Format : UTF-8
Codec ID : S_TEXT/UTF8
Codec ID/Info : UTF-8 Plain Text
Duration : 2 h 7 min
Bit rate : 36 b/s
Count of elements : 827
Stream size : 33.8 KiB (0%)
Title : Czech
Language : Czech
Default : No
Forced : No

Text #6
ID : 9
Format : UTF-8
Codec ID : S_TEXT/UTF8
Codec ID/Info : UTF-8 Plain Text
Duration : 2 h 7 min
Bit rate : 33 b/s
Count of elements : 832
Stream size : 31.6 KiB (0%)
Title : Danish
Language : Danish
Default : No
Forced : No

Text #7
ID : 10
Format : UTF-8
Codec ID : S_TEXT/UTF8
Codec ID/Info : UTF-8 Plain Text
Duration : 2 h 7 min
Bit rate : 36 b/s
Count of elements : 840
Stream size : 33.7 KiB (0%)
Title : German
Language : German
Default : No
Forced : No

Text #8
ID : 11
Format : UTF-8
Codec ID : S_TEXT/UTF8
Codec ID/Info : UTF-8 Plain Text
Duration : 2 h 7 min
Bit rate : 62 b/s
Count of elements : 836
Stream size : 58.4 KiB (0%)
Title : Greek
Language : Greek
Default : No
Forced : No

Text #9
ID : 12
Format : UTF-8
Codec ID : S_TEXT/UTF8
Codec ID/Info : UTF-8 Plain Text
Duration : 2 h 7 min
Bit rate : 35 b/s
Count of elements : 833
Stream size : 33.3 KiB (0%)
Title : Spanish European
Language : Spanish
Default : No
Forced : No

Text #10
ID : 13
Format : UTF-8
Codec ID : S_TEXT/UTF8
Codec ID/Info : UTF-8 Plain Text
Duration : 2 h 3 min
Bit rate : 28 b/s
Count of elements : 677
Stream size : 25.5 KiB (0%)
Title : Estonian Estonia
Language : Estonian
Default : No
Forced : No

Text #11
ID : 14
Format : UTF-8
Codec ID : S_TEXT/UTF8
Codec ID/Info : UTF-8 Plain Text
Duration : 2 h 7 min
Bit rate : 35 b/s
Count of elements : 832
Stream size : 33.0 KiB (0%)
Title : Finnish
Language : Finnish
Default : No
Forced : No

Text #12
ID : 15
Format : UTF-8
Codec ID : S_TEXT/UTF8
Codec ID/Info : UTF-8 Plain Text
Duration : 2 h 7 min
Bit rate : 34 b/s
Count of elements : 832
Stream size : 31.9 KiB (0%)
Title : French European
Language : French
Default : No
Forced : No

Text #13
ID : 16
Format : UTF-8
Codec ID : S_TEXT/UTF8
Codec ID/Info : UTF-8 Plain Text
Duration : 2 h 7 min
Bit rate : 46 b/s
Count of elements : 841
Stream size : 43.8 KiB (0%)
Title : Hebrew
Language : Hebrew
Default : No
Forced : No

Text #14
ID : 17
Format : UTF-8
Codec ID : S_TEXT/UTF8
Codec ID/Info : UTF-8 Plain Text
Duration : 2 h 7 min
Bit rate : 31 b/s
Count of elements : 825
Stream size : 29.2 KiB (0%)
Title : Croatian
Language : Croatian
Default : No
Forced : No

Text #15
ID : 18
Format : UTF-8
Codec ID : S_TEXT/UTF8
Codec ID/Info : UTF-8 Plain Text
Duration : 2 h 7 min
Bit rate : 34 b/s
Count of elements : 831
Stream size : 32.4 KiB (0%)
Title : Hungarian
Language : Hungarian
Default : No
Forced : No

Text #16
ID : 19
Format : UTF-8
Codec ID : S_TEXT/UTF8
Codec ID/Info : UTF-8 Plain Text
Duration : 2 h 7 min
Bit rate : 33 b/s
Count of elements : 991
Stream size : 31.2 KiB (0%)
Title : Indonesian
Language : Indonesian
Default : No
Forced : No

Text #17
ID : 20
Format : UTF-8
Codec ID : S_TEXT/UTF8
Codec ID/Info : UTF-8 Plain Text
Duration : 2 h 7 min
Bit rate : 34 b/s
Count of elements : 749
Stream size : 31.9 KiB (0%)
Title : Icelandic
Language : Icelandic
Default : No
Forced : No

Text #18
ID : 21
Format : UTF-8
Codec ID : S_TEXT/UTF8
Codec ID/Info : UTF-8 Plain Text
Duration : 2 h 7 min
Bit rate : 33 b/s
Count of elements : 832
Stream size : 31.3 KiB (0%)
Title : Italian
Language : Italian
Default : No
Forced : No

Text #19
ID : 22
Format : UTF-8
Codec ID : S_TEXT/UTF8
Codec ID/Info : UTF-8 Plain Text
Duration : 2 h 7 min
Bit rate : 27 b/s
Count of elements : 957
Stream size : 26.1 KiB (0%)
Title : Japanese
Language : Japanese
Default : No
Forced : No

Text #20
ID : 23
Format : UTF-8
Codec ID : S_TEXT/UTF8
Codec ID/Info : UTF-8 Plain Text
Duration : 2 h 7 min
Bit rate : 28 b/s
Count of elements : 995
Stream size : 26.7 KiB (0%)
Title : Korean
Language : Korean
Default : No
Forced : No

Text #21
ID : 24
Format : UTF-8
Codec ID : S_TEXT/UTF8
Codec ID/Info : UTF-8 Plain Text
Duration : 2 h 7 min
Bit rate : 30 b/s
Count of elements : 788
Stream size : 28.5 KiB (0%)
Title : Dutch
Language : Dutch
Default : No
Forced : No

Text #22
ID : 25
Format : UTF-8
Codec ID : S_TEXT/UTF8
Codec ID/Info : UTF-8 Plain Text
Duration : 2 h 7 min
Bit rate : 33 b/s
Count of elements : 832
Stream size : 31.5 KiB (0%)
Title : Norwegian
Language : Norwegian
Default : No
Forced : No

Text #23
ID : 26
Format : UTF-8
Codec ID : S_TEXT/UTF8
Codec ID/Info : UTF-8 Plain Text
Duration : 2 h 7 min
Bit rate : 34 b/s
Count of elements : 781
Stream size : 31.8 KiB (0%)
Title : Polish
Language : Polish
Default : No
Forced : No

Text #24
ID : 27
Format : UTF-8
Codec ID : S_TEXT/UTF8
Codec ID/Info : UTF-8 Plain Text
Duration : 2 h 7 min
Bit rate : 34 b/s
Count of elements : 832
Stream size : 32.0 KiB (0%)
Title : Portuguese European
Language : Portuguese
Default : No
Forced : No

Text #25
ID : 28
Format : UTF-8
Codec ID : S_TEXT/UTF8
Codec ID/Info : UTF-8 Plain Text
Duration : 2 h 7 min
Bit rate : 34 b/s
Count of elements : 750
Stream size : 32.0 KiB (0%)
Title : Romanian
Language : Romanian
Default : No
Forced : No

Text #26
ID : 29
Format : UTF-8
Codec ID : S_TEXT/UTF8
Codec ID/Info : UTF-8 Plain Text
Duration : 2 h 4 min
Bit rate : 54 b/s
Count of elements : 980
Stream size : 49.4 KiB (0%)
Title : Russian
Language : Russian
Default : No
Forced : No

Text #27
ID : 30
Format : UTF-8
Codec ID : S_TEXT/UTF8
Codec ID/Info : UTF-8 Plain Text
Duration : 2 h 3 min
Bit rate : 28 b/s
Count of elements : 781
Stream size : 25.8 KiB (0%)
Title : Slovenian Slovenia
Language : Slovenian
Default : No
Forced : No

Text #28
ID : 31
Format : UTF-8
Codec ID : S_TEXT/UTF8
Codec ID/Info : UTF-8 Plain Text
Duration : 2 h 7 min
Bit rate : 28 b/s
Count of elements : 577
Stream size : 26.2 KiB (0%)
Title : Swedish
Language : Swedish
Default : No
Forced : No

Text #29
ID : 32
Format : UTF-8
Codec ID : S_TEXT/UTF8
Codec ID/Info : UTF-8 Plain Text
Duration : 2 h 7 min
Bit rate : 61 b/s
Count of elements : 994
Stream size : 57.3 KiB (0%)
Title : Thai
Language : Thai
Default : No
Forced : No

Text #30
ID : 33
Format : UTF-8
Codec ID : S_TEXT/UTF8
Codec ID/Info : UTF-8 Plain Text
Duration : 2 h 7 min
Bit rate : 34 b/s
Count of elements : 832
Stream size : 31.9 KiB (0%)
Title : Turkish
Language : Turkish
Default : No
Forced : No

Text #31
ID : 34
Format : UTF-8
Codec ID : S_TEXT/UTF8
Codec ID/Info : UTF-8 Plain Text
Duration : 2 h 7 min
Bit rate : 27 b/s
Count of elements : 996
Stream size : 25.3 KiB (0%)
Title : Chinese Cantonese Traditional
Language : Chinese
Default : No
Forced : No

Menu
00:00:00.000 : en:Chapter 01
00:10:31.000 : en:Chapter 02
00:13:21.000 : en:Chapter 03
00:17:18.000 : en:Chapter 04
00:24:24.000 : en:Chapter 05
00:27:57.000 : en:Chapter 06
00:31:06.000 : en:Chapter 07
00:36:25.000 : en:Chapter 08
00:38:58.000 : en:Chapter 09
00:43:20.000 : en:Chapter 10
00:48:12.000 : en:Chapter 11
00:50:30.000 : en:Chapter 12
00:53:09.000 : en:Chapter 13
00:56:09.000 : en:Chapter 14
00:57:48.000 : en:Chapter 15
01:03:43.000 : en:Chapter 16
01:06:17.000 : en:Chapter 17
01:11:06.000 : en:Chapter 18
01:13:21.000 : en:Chapter 19
01:17:50.000 : en:Chapter 20
01:19:55.000 : en:Chapter 21
01:25:09.000 : en:Chapter 22
01:30:51.000 : en:Chapter 23
01:35:27.000 : en:Chapter 24
01:40:13.000 : en:Chapter 25
01:44:35.000 : en:Chapter 26
01:47:32.000 : en:Chapter 27
01:50:42.000 : en:Chapter 28
01:56:02.000 : en:Chapter 29
02:00:54.000 : en:Chapter 30
02:04:36.000 : en:Chapter 31
02:06:35.000 : en:Chapter 32

 

(He/Him) He's BvSRips. I dedicate myself to sharing files on this blog for free. But it is difficult to maintain the links online for a long time, they are denounced and deleted, reuploading costs more work, that is why a section for VIP users was created, where they can download all the files published 100% in MEGA, as premium, without spend more. I would greatly appreciate your collaboration so that this blog remains online for a longer time.

BUY VIP HERE

Leave a Reply

Your email address will not be published. Required fields are marked *