Godzilla (2014) | 720p & 1080p & 2160p x265-BvS

In 1954, Godzilla, an ancient Apex predator, is lured to Bikini Atoll in Castle Bravo to kill him with a Nuclear weapon. In 1999, Monarch scientists Ishiro Serizawa and Vivienne Graham investigate a giant skeleton unearthed by a collapsed Uranium mining in the Philippines. They find two giant spores; one dormant and one hatched with a trail that leads out of the cave to the sea. In Japan, the Janjira Nuclear Power Plant experiences unusual seismic activity; Supervisor Joe Brody sends his wife Sandra with other technicians into the reactor. A tremor breaches the reactor, leaving Sandra and her team unable to escape while the plant collapses.

Links: HOMEPAGE – TV.com

Note: In English with English Selectable Subtitles

DOWNLOAD

VIP (GOOGLE DRIVE)

This content is reserved for registered users. BUY A VIP MEMBERSHIP HERE and login to be able to see it.

FREE

  • Godzilla (2014) (2160p BluRay x265 10bit HDR Tigole) (ONLY VIP)

NFO

Godzilla (2014) (2160p BluRay x265 10bit HDR Tigole)

General
Unique ID : 299822187746538935295869926097300102390 (0xE18FA726E5B2F1DAC16610AC53061CF6)
Complete name : Godzilla (2014) (2160p BluRay x265 10bit HDR Tigole).mkv
Format : Matroska
Format version : Version 4
File size : 13.2 GiB
Duration : 2 h 3 min
Overall bit rate : 15.4 Mb/s
Movie name : Godzilla
Encoded date : UTC 2021-03-26 08:16:26
Writing application : mkvmerge v54.0.0 (‘F Maj Pixie’) 64-bit
Writing library : libebml v1.4.2 + libmatroska v1.6.3

Video
ID : 1
Format : HEVC
Format/Info : High Efficiency Video Coding
Format profile : Main [email protected]@Main
HDR format : SMPTE ST 2086, HDR10 compatible
Codec ID : V_MPEGH/ISO/HEVC
Duration : 2 h 3 min
Bit rate : 14.5 Mb/s
Width : 3 840 pixels
Height : 1 608 pixels
Display aspect ratio : 2.40:1
Frame rate mode : Constant
Frame rate : 23.976 (24000/1001) FPS
Color space : YUV
Chroma subsampling : 4:2:0
Bit depth : 10 bits
Bits/(Pixel*Frame) : 0.098
Stream size : 12.4 GiB (94%)
Writing library : x265M – 3.4+35-772bb4c84:[Windows][GCC 10.2.0][64 bit] 10bit
Encoding settings : cpuid=1111039 / frame-threads=3 / numa-pools=8 / wpp / no-pmode / no-pme / no-psnr / no-ssim / log-level=2 / input-csp=1 / input-res=3840×1608 / interlace=0 / total-frames=177091 / level-idc=0 / high-tier=1 / uhd-bd=0 / ref=4 / no-allow-non-conformance / repeat-headers / annexb / no-aud / no-hrd / info / hash=0 / no-temporal-layers / open-gop / min-keyint=23 / keyint=250 / gop-lookahead=0 / bframes=8 / b-adapt=2 / b-pyramid / bframe-bias=0 / rc-lookahead=25 / lookahead-slices=4 / scenecut=40 / hist-scenecut=0 / radl=0 / no-splice / no-intra-refresh / ctu=64 / min-cu-size=8 / rect / no-amp / max-tu-size=32 / tu-inter-depth=1 / tu-intra-depth=1 / limit-tu=0 / rdoq-level=2 / dynamic-rd=0.00 / no-ssim-rd / signhide / no-tskip / nr-intra=0 / nr-inter=0 / no-constrained-intra / strong-intra-smoothing / max-merge=3 / limit-refs=3 / limit-modes / me=3 / subme=3 / merange=57 / temporal-mvp / no-frame-dup / no-hme / weightp / no-weightb / no-analyze-src-pics / deblock=0:0 / no-sao / no-sao-non-deblock / rd=4 / selective-sao=0 / no-early-skip / rskip / no-fast-intra / no-tskip-fast / no-cu-lossless / no-b-intra / no-splitrd-skip / rdpenalty=0 / psy-rd=2.00 / psy-rdoq=1.00 / no-rd-refine / no-lossless / cbqpoffs=0 / crqpoffs=0 / rc=crf / crf=15.0 / qcomp=0.60 / qpstep=4 / stats-write=0 / stats-read=0 / ipratio=1.40 / pbratio=1.30 / aq-mode=2 / aq-strength=1.00 / cutree / zone-count=0 / no-strict-cbr / qg-size=32 / no-rc-grain / qpmax=69 / qpmin=0 / no-const-vbv / sar=0 / overscan=0 / videoformat=5 / range=0 / colorprim=9 / transfer=16 / colormatrix=9 / chromaloc=0 / display-window=0 / master-display=G(13250,34500)B(7500,3000)R(34000,16000)WP(15635,16450)L(40000000,50) / cll=498,92 / min-luma=0 / max-luma=1023 / log2-max-poc-lsb=8 / vui-timing-info / vui-hrd-info / slices=1 / no-opt-qp-pps / no-opt-ref-list-length-pps / no-multi-pass-opt-rps / scenecut-bias=0.05 / hist-threshold=0.03 / no-opt-cu-delta-qp / aq-motion / hdr10 / hdr10-opt / no-dhdr10-opt / no-idr-recovery-sei / analysis-reuse-level=0 / analysis-save-reuse-level=0 / analysis-load-reuse-level=0 / scale-factor=0 / refine-intra=0 / refine-inter=0 / refine-mv=1 / refine-ctu-distortion=0 / no-limit-sao / ctu-info=0 / no-lowpass-dct / refine-analysis-type=0 / copy-pic=1 / max-ausize-factor=1.0 / no-dynamic-refine / no-single-sei / no-hevc-aq / no-svt / no-field / qp-adaptation-range=1.00 / scenecut-aware-qp=0conformance-window-offsets / right=0 / bottom=0 / decoder-max-rate=0 / no-vbv-live-multi-pass
Default : Yes
Forced : No
Color range : Limited
Color primaries : BT.2020
Transfer characteristics : PQ
Matrix coefficients : BT.2020 non-constant
Mastering display color primaries : Display P3
Mastering display luminance : min: 0.0050 cd/m2, max: 4000 cd/m2
Maximum Content Light Level : 498 cd/m2
Maximum Frame-Average Light Level : 92 cd/m2

Audio
ID : 2
Format : AAC LC
Format/Info : Advanced Audio Codec Low Complexity
Codec ID : A_AAC-2
Duration : 2 h 3 min
Bit rate : 874 kb/s
Channel(s) : 8 channels
Channel layout : C L R Ls Rs Lb Rb LFE
Sampling rate : 48.0 kHz
Frame rate : 46.875 FPS (1024 SPF)
Compression mode : Lossy
Delay relative to video : 20 ms
Stream size : 770 MiB (6%)
Language : English
Default : Yes
Forced : No

Text #1
ID : 3
Format : VobSub
Muxing mode : zlib
Codec ID : S_VOBSUB
Codec ID/Info : Picture based subtitle format used on DVDs
Duration : 1 h 55 min
Bit rate : 8 774 b/s
Count of elements : 1456
Stream size : 7.26 MiB (0%)
Language : English
Default : No
Forced : No

Text #2
ID : 4
Format : VobSub
Muxing mode : zlib
Codec ID : S_VOBSUB
Codec ID/Info : Picture based subtitle format used on DVDs
Duration : 2 h 2 min
Bit rate : 5 580 b/s
Count of elements : 1202
Stream size : 4.88 MiB (0%)
Language : Chinese
Default : No
Forced : No

Text #3
ID : 5
Format : VobSub
Muxing mode : zlib
Codec ID : S_VOBSUB
Codec ID/Info : Picture based subtitle format used on DVDs
Duration : 2 h 2 min
Bit rate : 6 037 b/s
Count of elements : 1155
Stream size : 5.28 MiB (0%)
Language : Czech
Default : No
Forced : No

Text #4
ID : 6
Format : VobSub
Muxing mode : zlib
Codec ID : S_VOBSUB
Codec ID/Info : Picture based subtitle format used on DVDs
Duration : 2 h 2 min
Bit rate : 5 531 b/s
Count of elements : 1105
Stream size : 4.84 MiB (0%)
Language : Danish
Default : No
Forced : No

Text #5
ID : 7
Format : VobSub
Muxing mode : zlib
Codec ID : S_VOBSUB
Codec ID/Info : Picture based subtitle format used on DVDs
Duration : 2 h 2 min
Bit rate : 5 363 b/s
Count of elements : 922
Stream size : 4.69 MiB (0%)
Language : Dutch
Default : No
Forced : No

Text #6
ID : 8
Format : VobSub
Muxing mode : zlib
Codec ID : S_VOBSUB
Codec ID/Info : Picture based subtitle format used on DVDs
Duration : 2 h 1 min
Bit rate : 5 122 b/s
Count of elements : 997
Stream size : 4.44 MiB (0%)
Language : Finnish
Default : No
Forced : No

Text #7
ID : 9
Format : VobSub
Muxing mode : zlib
Codec ID : S_VOBSUB
Codec ID/Info : Picture based subtitle format used on DVDs
Duration : 2 h 2 min
Bit rate : 5 031 b/s
Count of elements : 1004
Stream size : 4.40 MiB (0%)
Language : French
Default : No
Forced : No

Text #8
ID : 10
Format : VobSub
Muxing mode : zlib
Codec ID : S_VOBSUB
Codec ID/Info : Picture based subtitle format used on DVDs
Duration : 2 h 2 min
Bit rate : 9 510 b/s
Count of elements : 1440
Stream size : 8.32 MiB (0%)
Language : German
Default : No
Forced : No

Text #9
ID : 11
Format : VobSub
Muxing mode : zlib
Codec ID : S_VOBSUB
Codec ID/Info : Picture based subtitle format used on DVDs
Duration : 1 h 54 min
Bit rate : 151 b/s
Count of elements : 20
Stream size : 127 KiB (0%)
Title : Forced
Language : German
Default : No
Forced : No

Text #10
ID : 12
Format : VobSub
Muxing mode : zlib
Codec ID : S_VOBSUB
Codec ID/Info : Picture based subtitle format used on DVDs
Duration : 2 h 2 min
Bit rate : 6 560 b/s
Count of elements : 1133
Stream size : 5.74 MiB (0%)
Language : Hungarian
Default : No
Forced : No

Text #11
ID : 13
Format : VobSub
Muxing mode : zlib
Codec ID : S_VOBSUB
Codec ID/Info : Picture based subtitle format used on DVDs
Duration : 2 h 2 min
Bit rate : 8 589 b/s
Count of elements : 1460
Stream size : 7.51 MiB (0%)
Language : Italian
Default : No
Forced : No

Text #12
ID : 14
Format : VobSub
Muxing mode : zlib
Codec ID : S_VOBSUB
Codec ID/Info : Picture based subtitle format used on DVDs
Duration : 2 h 2 min
Bit rate : 5 173 b/s
Count of elements : 1200
Stream size : 4.52 MiB (0%)
Language : Korean
Default : No
Forced : No

Text #13
ID : 15
Format : VobSub
Muxing mode : zlib
Codec ID : S_VOBSUB
Codec ID/Info : Picture based subtitle format used on DVDs
Duration : 2 h 2 min
Bit rate : 5 449 b/s
Count of elements : 1116
Stream size : 4.77 MiB (0%)
Language : Norwegian Bokmal
Default : No
Forced : No

Text #14
ID : 16
Format : VobSub
Muxing mode : zlib
Codec ID : S_VOBSUB
Codec ID/Info : Picture based subtitle format used on DVDs
Duration : 2 h 2 min
Bit rate : 5 126 b/s
Count of elements : 1100
Stream size : 4.48 MiB (0%)
Language : Polish
Default : No
Forced : No

Text #15
ID : 17
Format : VobSub
Muxing mode : zlib
Codec ID : S_VOBSUB
Codec ID/Info : Picture based subtitle format used on DVDs
Duration : 2 h 2 min
Bit rate : 6 008 b/s
Count of elements : 1187
Stream size : 5.25 MiB (0%)
Language : Romanian
Default : No
Forced : No

Text #16
ID : 18
Format : VobSub
Muxing mode : zlib
Codec ID : S_VOBSUB
Codec ID/Info : Picture based subtitle format used on DVDs
Duration : 2 h 2 min
Bit rate : 6 807 b/s
Count of elements : 1148
Stream size : 5.96 MiB (0%)
Language : Spanish
Default : No
Forced : No

Text #17
ID : 19
Format : VobSub
Muxing mode : zlib
Codec ID : S_VOBSUB
Codec ID/Info : Picture based subtitle format used on DVDs
Duration : 2 h 2 min
Bit rate : 5 796 b/s
Count of elements : 1046
Stream size : 5.07 MiB (0%)
Language : Swedish
Default : No
Forced : No

Text #18
ID : 20
Format : VobSub
Muxing mode : zlib
Codec ID : S_VOBSUB
Codec ID/Info : Picture based subtitle format used on DVDs
Duration : 2 h 2 min
Bit rate : 6 475 b/s
Count of elements : 1121
Stream size : 5.66 MiB (0%)
Language : Thai
Default : No
Forced : No

Menu
00:00:00.000 : en:Chapter 01
00:09:21.185 : en:Chapter 02
00:19:01.849 : en:Chapter 03
00:30:24.489 : en:Chapter 04
00:39:09.055 : en:Chapter 05
00:49:42.396 : en:Chapter 06
00:59:26.145 : en:Chapter 07
01:09:49.059 : en:Chapter 08
01:19:09.911 : en:Chapter 09
01:29:55.973 : en:Chapter 10
01:40:13.465 : en:Chapter 11
01:52:14.269 : en:Chapter 12
01:56:08.920 : en:Chapter 13

 

Leave a Reply

Your email address will not be published. Required fields are marked *