| 720p & 1080p & 2160p BluRay x265-BvS

Following the French atomic bomb tests in the South Pacific, an unknown creature is spotted passing eastward through the Panama Canal. Scientist Niko Tatopolous is called in to investigate the matter, and he quickly arrives at the conclusion that a giant, irradiated lizard has been created by the explosions. Godzilla then makes its way north, landing at Manhattan to begin wreaking havoc in the big city. Even with the combined forces of the U.S. military to fight the monster, will it be enough to save the people of New York?

Links: iMDB | Trailer

Note: In English with English/German/French/Spanish Selectable Subtitles

DOWNLOAD

VIP

This content is reserved for registered users. BUY A VIP MEMBERSHIP HERE and login to be able to see it.

FREE

  • Godzilla (1998) (2160p BluRay x265 HEVC 10bit HDR AAC 7.1 Tigole) – 20.5GB

NFO

2160p BluRay x265 10bit HDR Tigole

General
Unique ID : 87930048763924579271562203224260765842 (0x4226B61DD318BA3863B90B77DC606892)
Complete name : Godzilla (1998) (2160p BluRay x265 10bit HDR Tigole).mkv
Format : Matroska
Format version : Version 4
File size : 20.6 GiB
Duration : 2 h 18 min
Overall bit rate : 21.2 Mb/s
Movie name : Godzilla (1998)
Encoded date : UTC 2021-08-03 04:19:22
Writing application : mkvmerge v55.0.0 (‘Waiting For Space’) 64-bit
Writing library : libebml v1.4.2 + libmatroska v1.6.4

Video
ID : 1
Format : HEVC
Format/Info : High Efficiency Video Coding
Format profile : Main [email protected]@Main
HDR format : SMPTE ST 2086, HDR10 compatible
Codec ID : V_MPEGH/ISO/HEVC
Duration : 2 h 18 min
Bit rate : 20.0 Mb/s
Width : 3 840 pixels
Height : 1 600 pixels
Display aspect ratio : 2.40:1
Frame rate mode : Constant
Frame rate : 23.976 (24000/1001) FPS
Color space : YUV
Chroma subsampling : 4:2:0
Bit depth : 10 bits
Bits/(Pixel*Frame) : 0.136
Stream size : 19.4 GiB (94%)
Writing library : x265M – 3.4+35-772bb4c84:[Windows][GCC 10.2.0][64 bit] 10bit
Encoding settings : cpuid=1111039 / frame-threads=2 / numa-pools=4,0 / wpp / no-pmode / no-pme / no-psnr / no-ssim / log-level=2 / input-csp=1 / input-res=3840×1600 / interlace=0 / total-frames=199560 / level-idc=0 / high-tier=1 / uhd-bd=0 / ref=4 / no-allow-non-conformance / repeat-headers / annexb / aud / no-hrd / info / hash=0 / no-temporal-layers / open-gop / min-keyint=23 / keyint=250 / gop-lookahead=0 / bframes=4 / b-adapt=2 / b-pyramid / bframe-bias=0 / rc-lookahead=25 / lookahead-slices=4 / scenecut=40 / hist-scenecut=0 / radl=0 / no-splice / no-intra-refresh / ctu=64 / min-cu-size=8 / rect / no-amp / max-tu-size=32 / tu-inter-depth=1 / tu-intra-depth=1 / limit-tu=0 / rdoq-level=2 / dynamic-rd=0.00 / no-ssim-rd / signhide / no-tskip / nr-intra=0 / nr-inter=0 / no-constrained-intra / strong-intra-smoothing / max-merge=3 / limit-refs=3 / limit-modes / me=3 / subme=3 / merange=57 / temporal-mvp / no-frame-dup / no-hme / weightp / no-weightb / no-analyze-src-pics / deblock=0:0 / no-sao / no-sao-non-deblock / rd=4 / selective-sao=0 / no-early-skip / rskip / no-fast-intra / no-tskip-fast / no-cu-lossless / no-b-intra / no-splitrd-skip / rdpenalty=0 / psy-rd=2.00 / psy-rdoq=1.00 / no-rd-refine / no-lossless / cbqpoffs=0 / crqpoffs=0 / rc=abr / bitrate=20000 / qcomp=0.60 / qpstep=4 / stats-write=0 / stats-read=2 / cplxblur=20.0 / qblur=0.5 / ipratio=1.40 / pbratio=1.30 / aq-mode=2 / aq-strength=1.00 / cutree / zone-count=0 / no-strict-cbr / qg-size=32 / no-rc-grain / qpmax=69 / qpmin=0 / no-const-vbv / sar=0 / overscan=0 / videoformat=5 / range=0 / colorprim=9 / transfer=16 / colormatrix=9 / chromaloc=0 / display-window=0 / master-display=G(13250,34500)B(7500,3000)R(34000,16000)WP(15635,16450)L(40000000,50) / cll=10000,768 / min-luma=0 / max-luma=1023 / log2-max-poc-lsb=8 / vui-timing-info / vui-hrd-info / slices=1 / no-opt-qp-pps / no-opt-ref-list-length-pps / no-multi-pass-opt-rps / scenecut-bias=0.05 / hist-threshold=0.03 / no-opt-cu-delta-qp / aq-motion / hdr10 / hdr10-opt / no-dhdr10-opt / no-idr-recovery-sei / analysis-reuse-level=0 / analysis-save-reuse-level=0 / analysis-load-reuse-level=0 / scale-factor=0 / refine-intra=0 / refine-inter=0 / refine-mv=1 / refine-ctu-distortion=0 / no-limit-sao / ctu-info=0 / no-lowpass-dct / refine-analysis-type=0 / copy-pic=1 / max-ausize-factor=1.0 / no-dynamic-refine / no-single-sei / no-hevc-aq / no-svt / no-field / qp-adaptation-range=1.00 / scenecut-aware-qp=0conformance-window-offsets / right=0 / bottom=0 / decoder-max-rate=0 / no-vbv-live-multi-pass
Default : Yes
Forced : No
Color range : Limited
Color primaries : BT.2020
Transfer characteristics : PQ
Matrix coefficients : BT.2020 non-constant
Mastering display color primaries : Display P3
Mastering display luminance : min: 0.0050 cd/m2, max: 4000 cd/m2
Maximum Content Light Level : 10000 cd/m2
Maximum Frame-Average Light Level : 768 cd/m2

Audio
ID : 2
Format : AAC LC
Format/Info : Advanced Audio Codec Low Complexity
Codec ID : A_AAC-2
Duration : 2 h 18 min
Bit rate : 1 136 kb/s
Channel(s) : 8 channels
Channel layout : C L R Ls Rs Lb Rb LFE
Sampling rate : 48.0 kHz
Frame rate : 46.875 FPS (1024 SPF)
Compression mode : Lossy
Delay relative to video : 20 ms
Stream size : 1.10 GiB (5%)
Language : English
Default : Yes
Forced : No

Text #1
ID : 3
Format : VobSub
Muxing mode : zlib
Codec ID : S_VOBSUB
Codec ID/Info : Picture based subtitle format used on DVDs
Duration : 2 h 17 min
Bit rate : 9 053 b/s
Count of elements : 1571
Stream size : 8.91 MiB (0%)
Language : English
Default : No
Forced : No

Text #2
ID : 4
Format : VobSub
Muxing mode : zlib
Codec ID : S_VOBSUB
Codec ID/Info : Picture based subtitle format used on DVDs
Duration : 1 h 23 min
Bit rate : 133 b/s
Count of elements : 19
Stream size : 81.3 KiB (0%)
Title : Forced
Language : English
Default : No
Forced : Yes

Text #3
ID : 5
Format : VobSub
Muxing mode : zlib
Codec ID : S_VOBSUB
Codec ID/Info : Picture based subtitle format used on DVDs
Duration : 2 h 8 min
Bit rate : 3 497 b/s
Count of elements : 846
Stream size : 3.21 MiB (0%)
Language : Arabic
Default : No
Forced : No

Text #4
ID : 6
Format : VobSub
Muxing mode : zlib
Codec ID : S_VOBSUB
Codec ID/Info : Picture based subtitle format used on DVDs
Duration : 2 h 8 min
Bit rate : 5 539 b/s
Count of elements : 875
Stream size : 5.09 MiB (0%)
Language : Chinese
Default : No
Forced : No

Text #5
ID : 7
Format : VobSub
Muxing mode : zlib
Codec ID : S_VOBSUB
Codec ID/Info : Picture based subtitle format used on DVDs
Duration : 2 h 8 min
Bit rate : 5 116 b/s
Count of elements : 840
Stream size : 4.70 MiB (0%)
Language : Czech
Default : No
Forced : No

Text #6
ID : 8
Format : VobSub
Muxing mode : zlib
Codec ID : S_VOBSUB
Codec ID/Info : Picture based subtitle format used on DVDs
Duration : 2 h 5 min
Bit rate : 5 205 b/s
Count of elements : 790
Stream size : 4.66 MiB (0%)
Language : Danish
Default : No
Forced : No

Text #7
ID : 9
Format : VobSub
Muxing mode : zlib
Codec ID : S_VOBSUB
Codec ID/Info : Picture based subtitle format used on DVDs
Duration : 2 h 8 min
Bit rate : 5 650 b/s
Count of elements : 836
Stream size : 5.19 MiB (0%)
Language : Dutch
Default : No
Forced : No

Text #8
ID : 10
Format : VobSub
Muxing mode : zlib
Codec ID : S_VOBSUB
Codec ID/Info : Picture based subtitle format used on DVDs
Duration : 2 h 5 min
Bit rate : 5 665 b/s
Count of elements : 817
Stream size : 5.07 MiB (0%)
Language : Finnish
Default : No
Forced : No

Text #9
ID : 11
Format : VobSub
Muxing mode : zlib
Codec ID : S_VOBSUB
Codec ID/Info : Picture based subtitle format used on DVDs
Duration : 2 h 14 min
Bit rate : 5 024 b/s
Count of elements : 886
Stream size : 4.84 MiB (0%)
Language : French
Default : No
Forced : No

Text #10
ID : 12
Format : VobSub
Muxing mode : zlib
Codec ID : S_VOBSUB
Codec ID/Info : Picture based subtitle format used on DVDs
Duration : 2 h 8 min
Bit rate : 5 864 b/s
Count of elements : 838
Stream size : 5.38 MiB (0%)
Language : German
Default : No
Forced : No

Text #11
ID : 13
Format : VobSub
Muxing mode : zlib
Codec ID : S_VOBSUB
Codec ID/Info : Picture based subtitle format used on DVDs
Duration : 2 h 5 min
Bit rate : 192 b/s
Count of elements : 38
Stream size : 177 KiB (0%)
Title : Forced
Language : German
Default : No
Forced : No

Text #12
ID : 14
Format : VobSub
Muxing mode : zlib
Codec ID : S_VOBSUB
Codec ID/Info : Picture based subtitle format used on DVDs
Duration : 2 h 9 min
Bit rate : 5 627 b/s
Count of elements : 806
Stream size : 5.20 MiB (0%)
Language : Greek
Default : No
Forced : No

Text #13
ID : 15
Format : VobSub
Muxing mode : zlib
Codec ID : S_VOBSUB
Codec ID/Info : Picture based subtitle format used on DVDs
Duration : 2 h 8 min
Bit rate : 3 806 b/s
Count of elements : 848
Stream size : 3.49 MiB (0%)
Language : Hindi
Default : No
Forced : No

Text #14
ID : 16
Format : VobSub
Muxing mode : zlib
Codec ID : S_VOBSUB
Codec ID/Info : Picture based subtitle format used on DVDs
Duration : 2 h 8 min
Bit rate : 5 764 b/s
Count of elements : 846
Stream size : 5.29 MiB (0%)
Language : Hungarian
Default : No
Forced : No

Text #15
ID : 17
Format : VobSub
Muxing mode : zlib
Codec ID : S_VOBSUB
Codec ID/Info : Picture based subtitle format used on DVDs
Duration : 2 h 8 min
Bit rate : 5 764 b/s
Count of elements : 843
Stream size : 5.29 MiB (0%)
Language : Italian
Default : No
Forced : No

Text #16
ID : 18
Format : VobSub
Muxing mode : zlib
Codec ID : S_VOBSUB
Codec ID/Info : Picture based subtitle format used on DVDs
Duration : 2 h 8 min
Bit rate : 5 154 b/s
Count of elements : 805
Stream size : 4.72 MiB (0%)
Language : Korean
Default : No
Forced : No

Text #17
ID : 19
Format : VobSub
Muxing mode : zlib
Codec ID : S_VOBSUB
Codec ID/Info : Picture based subtitle format used on DVDs
Duration : 2 h 5 min
Bit rate : 5 392 b/s
Count of elements : 794
Stream size : 4.83 MiB (0%)
Language : Norwegian Bokmal
Default : No
Forced : No

Text #18
ID : 20
Format : VobSub
Muxing mode : zlib
Codec ID : S_VOBSUB
Codec ID/Info : Picture based subtitle format used on DVDs
Duration : 2 h 8 min
Bit rate : 5 381 b/s
Count of elements : 844
Stream size : 4.94 MiB (0%)
Language : Polish
Default : No
Forced : No

Text #19
ID : 21
Format : VobSub
Muxing mode : zlib
Codec ID : S_VOBSUB
Codec ID/Info : Picture based subtitle format used on DVDs
Duration : 2 h 8 min
Bit rate : 6 637 b/s
Count of elements : 1031
Stream size : 6.09 MiB (0%)
Language : Portuguese
Default : No
Forced : No

Text #20
ID : 22
Format : VobSub
Muxing mode : zlib
Codec ID : S_VOBSUB
Codec ID/Info : Picture based subtitle format used on DVDs
Duration : 2 h 17 min
Bit rate : 5 230 b/s
Count of elements : 844
Stream size : 5.16 MiB (0%)
Language : Romanian
Default : No
Forced : No

Text #21
ID : 23
Format : VobSub
Muxing mode : zlib
Codec ID : S_VOBSUB
Codec ID/Info : Picture based subtitle format used on DVDs
Duration : 2 h 8 min
Bit rate : 5 823 b/s
Count of elements : 857
Stream size : 5.35 MiB (0%)
Language : Russian
Default : No
Forced : No

Text #22
ID : 24
Format : VobSub
Muxing mode : zlib
Codec ID : S_VOBSUB
Codec ID/Info : Picture based subtitle format used on DVDs
Duration : 2 h 8 min
Bit rate : 5 457 b/s
Count of elements : 843
Stream size : 5.01 MiB (0%)
Language : Slovak
Default : No
Forced : No

Text #23
ID : 25
Format : VobSub
Muxing mode : zlib
Codec ID : S_VOBSUB
Codec ID/Info : Picture based subtitle format used on DVDs
Duration : 2 h 8 min
Bit rate : 5 040 b/s
Count of elements : 845
Stream size : 4.63 MiB (0%)
Language : Slovenian
Default : No
Forced : No

Text #24
ID : 26
Format : VobSub
Muxing mode : zlib
Codec ID : S_VOBSUB
Codec ID/Info : Picture based subtitle format used on DVDs
Duration : 2 h 8 min
Bit rate : 5 606 b/s
Count of elements : 835
Stream size : 5.15 MiB (0%)
Language : Spanish
Default : No
Forced : No

Text #25
ID : 27
Format : VobSub
Muxing mode : zlib
Codec ID : S_VOBSUB
Codec ID/Info : Picture based subtitle format used on DVDs
Duration : 2 h 5 min
Bit rate : 4 823 b/s
Count of elements : 811
Stream size : 4.32 MiB (0%)
Language : Swedish
Default : No
Forced : No

Text #26
ID : 28
Format : VobSub
Muxing mode : zlib
Codec ID : S_VOBSUB
Codec ID/Info : Picture based subtitle format used on DVDs
Duration : 2 h 8 min
Bit rate : 5 914 b/s
Count of elements : 847
Stream size : 5.43 MiB (0%)
Language : Thai
Default : No
Forced : No

Text #27
ID : 29
Format : VobSub
Muxing mode : zlib
Codec ID : S_VOBSUB
Codec ID/Info : Picture based subtitle format used on DVDs
Duration : 2 h 8 min
Bit rate : 5 926 b/s
Count of elements : 842
Stream size : 5.44 MiB (0%)
Language : Turkish
Default : No
Forced : No

Text #28
ID : 30
Format : VobSub
Muxing mode : zlib
Codec ID : S_VOBSUB
Codec ID/Info : Picture based subtitle format used on DVDs
Duration : 2 h 17 min
Bit rate : 5 294 b/s
Count of elements : 850
Stream size : 5.22 MiB (0%)
Language : Ukrainian
Default : No
Forced : No

Menu
00:00:00.000 : en:Chapter 01
00:07:48.176 : en:Chapter 02
00:17:25.085 : en:Chapter 03
00:25:28.151 : en:Chapter 04
00:36:53.711 : en:Chapter 05
00:41:48.047 : en:Chapter 06
00:48:19.730 : en:Chapter 07
01:01:35.942 : en:Chapter 08
01:11:05.886 : en:Chapter 09
01:21:38.310 : en:Chapter 10
01:30:26.212 : en:Chapter 11
01:39:13.822 : en:Chapter 12
01:50:23.867 : en:Chapter 13
01:52:28.658 : en:Chapter 14
02:00:36.771 : en:Chapter 15
02:05:56.882 : en:Chapter 16

Leave a Reply

Your email address will not be published. Required fields are marked *