| 720p & 1080p & 2160p BluRay x265-BvS

James Bond willingly falls into an assassination plot involving a naive Russian beauty in order to retrieve a Soviet encryption device that was stolen by S.P.E.C.T.R.E.

Links: IMDB  – Trailer

Note: In English with English/French/Portuguese/Spanish Selectable Subtitles

DOWNLOAD

VIP

This content is reserved for registered users. Sign up here o login to be able to see it. Buy your VIP membership

FREE

  • From.Russia.With.Love.1963.2160p.WEB-DL.DTS-HD.MA.5.1.HEVC-AjA – 13GB (ONLY VIP)

NFO

From.Russia.With.Love.1963.2160p.WEB-DL.DTS-HD.MA.5.1.HEVC-AjA

General
Unique ID : 207347069815445744578990507829159293950 (0x9BFD97D30857CE53BA3F25E70E1073FE)
Complete name : From.Russia.With.Love.1963.2160p.WEB-DL.DTS-HD.MA.5.1.HEVC-AjA.mkv
Format : Matroska
Format version : Version 4
File size : 13.0 GiB
Duration : 1 h 55 min
Overall bit rate mode : Variable
Overall bit rate : 16.2 Mb/s
Movie name : From Russia With Love (1963)
Encoded date : UTC 2022-05-05 19:30:11
Writing application : mkvmerge v66.0.0 (‘Josie’) 64-bit
Writing library : libebml v1.4.2 + libmatroska v1.6.4

Video
ID : 1
Format : HEVC
Format/Info : High Efficiency Video Coding
Format profile : Main [email protected]@High
Codec ID : V_MPEGH/ISO/HEVC
Duration : 1 h 55 min
Bit rate : 12.0 Mb/s
Width : 3 600 pixels
Height : 2 160 pixels
Display aspect ratio : 5:3
Frame rate mode : Constant
Frame rate : 23.976 (23976/1000) FPS
Color space : YUV
Chroma subsampling : 4:2:0
Bit depth : 10 bits
Bits/(Pixel*Frame) : 0.064
Stream size : 9.65 GiB (74%)
Default : Yes
Forced : No
Color range : Limited
Color primaries : BT.709
Transfer characteristics : BT.709
Matrix coefficients : BT.709

Audio #1
ID : 2
Format : DTS XLL
Format/Info : Digital Theater Systems
Commercial name : DTS-HD Master Audio
Codec ID : A_DTS
Duration : 1 h 55 min
Bit rate mode : Variable
Bit rate : 3 801 kb/s
Channel(s) : 6 channels
Channel layout : C L R Ls Rs LFE
Sampling rate : 48.0 kHz
Frame rate : 93.750 FPS (512 SPF)
Bit depth : 24 bits
Compression mode : Lossless
Delay relative to video : 5 s 423 ms
Stream size : 3.06 GiB (24%)
Language : English
Default : Yes
Forced : No

Audio #2
ID : 3
Format : AC-3
Format/Info : Audio Coding 3
Commercial name : Dolby Digital
Codec ID : A_AC3
Duration : 1 h 55 min
Bit rate mode : Constant
Bit rate : 384 kb/s
Channel(s) : 6 channels
Channel layout : L R C LFE Ls Rs
Sampling rate : 48.0 kHz
Frame rate : 31.250 FPS (1536 SPF)
Compression mode : Lossy
Stream size : 317 MiB (2%)
Title : British
Language : English
Service kind : Complete Main
Default : No
Forced : No

Text #1
ID : 4
Format : UTF-8
Codec ID : S_TEXT/UTF8
Codec ID/Info : UTF-8 Plain Text
Duration : 1 h 50 min
Bit rate : 41 b/s
Count of elements : 964
Stream size : 33.9 KiB (0%)
Language : English
Default : No
Forced : No

Text #2
ID : 5
Format : UTF-8
Codec ID : S_TEXT/UTF8
Codec ID/Info : UTF-8 Plain Text
Duration : 1 h 50 min
Bit rate : 41 b/s
Count of elements : 1236
Stream size : 33.7 KiB (0%)
Title : Latin American
Language : Spanish
Default : No
Forced : No

Text #3
ID : 6
Format : UTF-8
Codec ID : S_TEXT/UTF8
Codec ID/Info : UTF-8 Plain Text
Duration : 1 h 52 min
Bit rate : 28 b/s
Count of elements : 829
Stream size : 23.6 KiB (0%)
Language : French
Default : No
Forced : No

Text #4
ID : 7
Format : UTF-8
Codec ID : S_TEXT/UTF8
Codec ID/Info : UTF-8 Plain Text
Duration : 1 h 50 min
Bit rate : 36 b/s
Count of elements : 925
Stream size : 29.7 KiB (0%)
Title : Brazilian
Language : Portuguese
Default : No
Forced : No

Menu
00:00:05.423 : :Chapter01
00:03:15.487 : :Chapter02
00:05:42.426 : :Chapter03
00:08:09.615 : :Chapter04
00:11:21.973 : :Chapter05
00:14:08.431 : :Chapter06
00:17:58.703 : :Chapter07
00:19:40.388 : :Chapter08
00:24:32.972 : :Chapter09
00:29:09.915 : :Chapter10
00:31:41.900 : :Chapter11
00:33:58.912 : :Chapter12
00:38:26.596 : :Chapter13
00:48:59.187 : :Chapter14
00:51:39.513 : :Chapter15
00:55:40.588 : :Chapter16
00:59:55.718 : :Chapter17
01:03:37.356 : :Chapter18
01:06:48.880 : :Chapter19
01:10:01.156 : :Chapter20
01:12:12.120 : :Chapter21
01:14:32.302 : :Chapter22
01:16:22.120 : :Chapter23
01:20:26.072 : :Chapter24
01:24:32.943 : :Chapter25
01:26:37.026 : :Chapter26
01:36:32.120 : :Chapter27
01:39:17.243 : :Chapter28
01:44:14.749 : :Chapter29
01:45:50.761 : :Chapter30
01:49:18.135 : :Chapter31
01:53:42.816 : :Chapter32
01:55:17.536 : :Chapter33

 

(He/Him) He's BvSRips. I dedicate myself to sharing files on this blog for free. But it is difficult to maintain the links online for a long time, they are denounced and deleted, reuploading costs more work, that is why a section for VIP users was created, where they can download all the files published 100% in MEGA, as premium, without spend more. I would greatly appreciate your collaboration so that this blog remains online for a longer time.

BUY VIP HERE

Leave a Reply

Your email address will not be published. Required fields are marked *