Frankenstein (1931) | 720p & 1080p & 2160p BluRay x265-BvS

Dr. Frankenstein dares to tamper with life and death by creating a human monster out of lifeless body parts.

Links: iMDB | Trailer

Note: In English with English/French/Spanish/German Selectable Subtitles

DOWNLOAD

VIP

This content is reserved for registered users. Sign up here o login to be able to see it. Buy your VIP membership

FREE

  • Frankenstein (1931) (2160p BluRay x265 10bit HDR Tigole) – 9.04GB (ONLY VIP)

NFO

Frankenstein (1931) (2160p BluRay x265 10bit HDR Tigole)

General
Unique ID : 337954331376918569757004514636866143916 (0xFE3FA2FC5FAC673EA8E802DC710646AC)
Complete name : Frankenstein (1931) (2160p BluRay x265 10bit HDR Tigole).mkv
Format : Matroska
Format version : Version 4
File size : 9.04 GiB
Duration : 1 h 10 min
Overall bit rate : 18.4 Mb/s
Movie name : Frankenstein (1931)
Encoded date : UTC 2021-10-27 09:35:31
Writing application : mkvmerge v55.0.0 (‘Waiting For Space’) 64-bit
Writing library : libebml v1.4.2 + libmatroska v1.6.4

Video
ID : 1
Format : HEVC
Format/Info : High Efficiency Video Coding
Format profile : Main [email protected]@Main
HDR format : SMPTE ST 2086, HDR10 compatible
Codec ID : V_MPEGH/ISO/HEVC
Duration : 1 h 10 min
Bit rate : 18.0 Mb/s
Width : 2 914 pixels
Height : 2 160 pixels
Display aspect ratio : 4:3
Frame rate mode : Constant
Frame rate : 23.976 (24000/1001) FPS
Color space : YUV
Chroma subsampling : 4:2:0
Bit depth : 10 bits
Bits/(Pixel*Frame) : 0.119
Stream size : 8.83 GiB (98%)
Writing library : x265M – 3.4+35-772bb4c84:[Windows][GCC 10.2.0][64 bit] 10bit
Encoding settings : cpuid=1111039 / frame-threads=3 / numa-pools=8 / wpp / no-pmode / no-pme / no-psnr / no-ssim / log-level=2 / input-csp=1 / input-res=2914×2160 / interlace=0 / total-frames=100983 / level-idc=0 / high-tier=1 / uhd-bd=0 / ref=4 / no-allow-non-conformance / repeat-headers / annexb / aud / no-hrd / info / hash=0 / no-temporal-layers / open-gop / min-keyint=23 / keyint=250 / gop-lookahead=0 / bframes=4 / b-adapt=2 / b-pyramid / bframe-bias=0 / rc-lookahead=25 / lookahead-slices=4 / scenecut=40 / hist-scenecut=0 / radl=0 / no-splice / no-intra-refresh / ctu=64 / min-cu-size=8 / rect / no-amp / max-tu-size=32 / tu-inter-depth=1 / tu-intra-depth=1 / limit-tu=0 / rdoq-level=2 / dynamic-rd=0.00 / no-ssim-rd / signhide / no-tskip / nr-intra=0 / nr-inter=0 / no-constrained-intra / strong-intra-smoothing / max-merge=3 / limit-refs=3 / limit-modes / me=3 / subme=3 / merange=57 / temporal-mvp / no-frame-dup / no-hme / weightp / no-weightb / no-analyze-src-pics / deblock=0:0 / no-sao / no-sao-non-deblock / rd=4 / selective-sao=0 / no-early-skip / rskip / no-fast-intra / no-tskip-fast / no-cu-lossless / no-b-intra / no-splitrd-skip / rdpenalty=0 / psy-rd=2.00 / psy-rdoq=1.00 / no-rd-refine / no-lossless / cbqpoffs=0 / crqpoffs=0 / rc=abr / bitrate=18000 / qcomp=0.60 / qpstep=4 / stats-write=0 / stats-read=2 / cplxblur=20.0 / qblur=0.5 / ipratio=1.40 / pbratio=1.30 / aq-mode=2 / aq-strength=1.00 / cutree / zone-count=0 / no-strict-cbr / qg-size=32 / no-rc-grain / qpmax=69 / qpmin=0 / no-const-vbv / sar=0 / overscan=0 / videoformat=5 / range=0 / colorprim=9 / transfer=16 / colormatrix=9 / chromaloc=0 / display-window=0 / master-display=G(13250,34500)B(7500,3000)R(34000,16000)WP(15635,16450)L(10000000,50) / cll=944,41 / min-luma=0 / max-luma=1023 / log2-max-poc-lsb=8 / vui-timing-info / vui-hrd-info / slices=1 / no-opt-qp-pps / no-opt-ref-list-length-pps / no-multi-pass-opt-rps / scenecut-bias=0.05 / hist-threshold=0.03 / no-opt-cu-delta-qp / aq-motion / hdr10 / hdr10-opt / no-dhdr10-opt / no-idr-recovery-sei / analysis-reuse-level=0 / analysis-save-reuse-level=0 / analysis-load-reuse-level=0 / scale-factor=0 / refine-intra=0 / refine-inter=0 / refine-mv=1 / refine-ctu-distortion=0 / no-limit-sao / ctu-info=0 / no-lowpass-dct / refine-analysis-type=0 / copy-pic=1 / max-ausize-factor=1.0 / no-dynamic-refine / no-single-sei / no-hevc-aq / no-svt / no-field / qp-adaptation-range=1.00 / scenecut-aware-qp=0conformance-window-offsets / right=0 / bottom=0 / decoder-max-rate=0 / no-vbv-live-multi-pass
Default : Yes
Forced : No
Color range : Limited
Color primaries : BT.2020
Transfer characteristics : PQ
Matrix coefficients : BT.2020 non-constant
Mastering display color primaries : Display P3
Mastering display luminance : min: 0.0050 cd/m2, max: 1000 cd/m2
Maximum Content Light Level : 944 cd/m2
Maximum Frame-Average Light Level : 41 cd/m2

Audio #1
ID : 2
Format : AAC LC
Format/Info : Advanced Audio Codec Low Complexity
Codec ID : A_AAC-2
Duration : 1 h 10 min
Bit rate : 88.0 kb/s
Channel(s) : 2 channels
Channel layout : L R
Sampling rate : 48.0 kHz
Frame rate : 46.875 FPS (1024 SPF)
Compression mode : Lossy
Delay relative to video : 20 ms
Stream size : 44.2 MiB (0%)
Language : English
Default : Yes
Forced : No

Audio #2
ID : 3
Format : AAC LC SBR
Format/Info : Advanced Audio Codec Low Complexity with Spectral Band Replication
Commercial name : HE-AAC
Format settings : Explicit
Codec ID : A_AAC-2
Duration : 1 h 10 min
Bit rate : 66.2 kb/s
Channel(s) : 2 channels
Channel layout : L R
Sampling rate : 48.0 kHz
Frame rate : 23.438 FPS (2048 SPF)
Compression mode : Lossy
Delay relative to video : 40 ms
Stream size : 33.0 MiB (0%)
Title : Commentary 1
Language : English
Default : No
Forced : No

Audio #3
ID : 4
Format : AAC LC SBR
Format/Info : Advanced Audio Codec Low Complexity with Spectral Band Replication
Commercial name : HE-AAC
Format settings : Explicit
Codec ID : A_AAC-2
Duration : 1 h 10 min
Bit rate : 66.2 kb/s
Channel(s) : 2 channels
Channel layout : L R
Sampling rate : 48.0 kHz
Frame rate : 23.438 FPS (2048 SPF)
Compression mode : Lossy
Delay relative to video : 40 ms
Stream size : 33.0 MiB (0%)
Title : Commentary 2
Language : English
Default : No
Forced : No

Text #1
ID : 5
Format : VobSub
Muxing mode : zlib
Codec ID : S_VOBSUB
Codec ID/Info : Picture based subtitle format used on DVDs
Duration : 1 h 9 min
Bit rate : 9 120 b/s
Count of elements : 868
Stream size : 4.50 MiB (0%)
Language : English
Default : No
Forced : No

Text #2
ID : 6
Format : VobSub
Muxing mode : zlib
Codec ID : S_VOBSUB
Codec ID/Info : Picture based subtitle format used on DVDs
Duration : 1 h 9 min
Bit rate : 19.8 kb/s
Count of elements : 1067
Stream size : 9.83 MiB (0%)
Title : Commentary 1
Language : English
Default : No
Forced : No

Text #3
ID : 7
Format : VobSub
Muxing mode : zlib
Codec ID : S_VOBSUB
Codec ID/Info : Picture based subtitle format used on DVDs
Duration : 1 h 9 min
Bit rate : 24.0 kb/s
Count of elements : 1392
Stream size : 12.0 MiB (0%)
Title : Commentary 2
Language : English
Default : No
Forced : No

Text #4
ID : 8
Format : VobSub
Muxing mode : zlib
Codec ID : S_VOBSUB
Codec ID/Info : Picture based subtitle format used on DVDs
Duration : 1 h 9 min
Bit rate : 6 936 b/s
Count of elements : 164
Stream size : 3.44 MiB (0%)
Title : Trivia
Language : English
Default : No
Forced : No

Text #5
ID : 9
Format : VobSub
Muxing mode : zlib
Codec ID : S_VOBSUB
Codec ID/Info : Picture based subtitle format used on DVDs
Duration : 1 h 9 min
Bit rate : 5 857 b/s
Count of elements : 681
Stream size : 2.92 MiB (0%)
Language : Chinese
Default : No
Forced : No

Text #6
ID : 10
Format : VobSub
Muxing mode : zlib
Codec ID : S_VOBSUB
Codec ID/Info : Picture based subtitle format used on DVDs
Duration : 1 h 10 min
Bit rate : 6 865 b/s
Count of elements : 596
Stream size : 3.44 MiB (0%)
Language : Danish
Default : No
Forced : No

Text #7
ID : 11
Format : VobSub
Muxing mode : zlib
Codec ID : S_VOBSUB
Codec ID/Info : Picture based subtitle format used on DVDs
Duration : 1 h 10 min
Bit rate : 6 309 b/s
Count of elements : 478
Stream size : 3.16 MiB (0%)
Language : Dutch
Default : No
Forced : No

Text #8
ID : 12
Format : VobSub
Muxing mode : zlib
Codec ID : S_VOBSUB
Codec ID/Info : Picture based subtitle format used on DVDs
Duration : 1 h 10 min
Bit rate : 6 864 b/s
Count of elements : 596
Stream size : 3.44 MiB (0%)
Language : Finnish
Default : No
Forced : No

Text #9
ID : 13
Format : VobSub
Muxing mode : zlib
Codec ID : S_VOBSUB
Codec ID/Info : Picture based subtitle format used on DVDs
Duration : 1 h 10 min
Bit rate : 6 851 b/s
Count of elements : 611
Stream size : 3.44 MiB (0%)
Language : French
Default : No
Forced : No

Text #10
ID : 14
Format : VobSub
Muxing mode : zlib
Codec ID : S_VOBSUB
Codec ID/Info : Picture based subtitle format used on DVDs
Duration : 1 h 10 min
Bit rate : 15.6 kb/s
Count of elements : 983
Stream size : 7.82 MiB (0%)
Title : Commentary 1
Language : French
Default : No
Forced : No

Text #11
ID : 15
Format : VobSub
Muxing mode : zlib
Codec ID : S_VOBSUB
Codec ID/Info : Picture based subtitle format used on DVDs
Duration : 1 h 10 min
Bit rate : 20.9 kb/s
Count of elements : 1358
Stream size : 10.5 MiB (0%)
Title : Commentary 2
Language : French
Default : No
Forced : No

Text #12
ID : 16
Format : VobSub
Muxing mode : zlib
Codec ID : S_VOBSUB
Codec ID/Info : Picture based subtitle format used on DVDs
Duration : 1 h 10 min
Bit rate : 6 702 b/s
Count of elements : 163
Stream size : 3.36 MiB (0%)
Title : Trivia
Language : French
Default : No
Forced : No

Text #13
ID : 17
Format : VobSub
Muxing mode : zlib
Codec ID : S_VOBSUB
Codec ID/Info : Picture based subtitle format used on DVDs
Duration : 1 h 10 min
Bit rate : 6 997 b/s
Count of elements : 596
Stream size : 3.51 MiB (0%)
Language : German
Default : No
Forced : No

Text #14
ID : 18
Format : VobSub
Muxing mode : zlib
Codec ID : S_VOBSUB
Codec ID/Info : Picture based subtitle format used on DVDs
Duration : 1 h 10 min
Bit rate : 275 b/s
Count of elements : 23
Stream size : 142 KiB (0%)
Title : Forced
Language : German
Default : No
Forced : No

Text #15
ID : 19
Format : VobSub
Muxing mode : zlib
Codec ID : S_VOBSUB
Codec ID/Info : Picture based subtitle format used on DVDs
Duration : 1 h 10 min
Bit rate : 17.5 kb/s
Count of elements : 973
Stream size : 8.78 MiB (0%)
Title : Commentary 1
Language : German
Default : No
Forced : No

Text #16
ID : 20
Format : VobSub
Muxing mode : zlib
Codec ID : S_VOBSUB
Codec ID/Info : Picture based subtitle format used on DVDs
Duration : 1 h 10 min
Bit rate : 23.1 kb/s
Count of elements : 1360
Stream size : 11.6 MiB (0%)
Title : Commentary 2
Language : German
Default : No
Forced : No

Text #17
ID : 21
Format : VobSub
Muxing mode : zlib
Codec ID : S_VOBSUB
Codec ID/Info : Picture based subtitle format used on DVDs
Duration : 1 h 10 min
Bit rate : 7 446 b/s
Count of elements : 163
Stream size : 3.73 MiB (0%)
Title : Trivia
Language : German
Default : No
Forced : No

Text #18
ID : 22
Format : VobSub
Muxing mode : zlib
Codec ID : S_VOBSUB
Codec ID/Info : Picture based subtitle format used on DVDs
Duration : 1 h 10 min
Bit rate : 6 602 b/s
Count of elements : 595
Stream size : 3.31 MiB (0%)
Language : Italian
Default : No
Forced : No

Text #19
ID : 23
Format : VobSub
Muxing mode : zlib
Codec ID : S_VOBSUB
Codec ID/Info : Picture based subtitle format used on DVDs
Duration : 1 h 10 min
Bit rate : 17.7 kb/s
Count of elements : 983
Stream size : 8.88 MiB (0%)
Title : Commentary 1
Language : Italian
Default : No
Forced : No

Text #20
ID : 24
Format : VobSub
Muxing mode : zlib
Codec ID : S_VOBSUB
Codec ID/Info : Picture based subtitle format used on DVDs
Duration : 1 h 10 min
Bit rate : 20.8 kb/s
Count of elements : 1360
Stream size : 10.4 MiB (0%)
Title : Commentary 2
Language : Italian
Default : No
Forced : No

Text #21
ID : 25
Format : VobSub
Muxing mode : zlib
Codec ID : S_VOBSUB
Codec ID/Info : Picture based subtitle format used on DVDs
Duration : 1 h 10 min
Bit rate : 6 582 b/s
Count of elements : 163
Stream size : 3.30 MiB (0%)
Title : Trivia
Language : Italian
Default : No
Forced : No

Text #22
ID : 26
Format : VobSub
Muxing mode : zlib
Codec ID : S_VOBSUB
Codec ID/Info : Picture based subtitle format used on DVDs
Duration : 1 h 9 min
Bit rate : 4 161 b/s
Count of elements : 580
Stream size : 2.05 MiB (0%)
Language : Japanese
Default : No
Forced : No

Text #23
ID : 27
Format : VobSub
Muxing mode : zlib
Codec ID : S_VOBSUB
Codec ID/Info : Picture based subtitle format used on DVDs
Duration : 1 h 9 min
Bit rate : 11.5 kb/s
Count of elements : 843
Stream size : 5.72 MiB (0%)
Title : Commentary 1
Language : Japanese
Default : No
Forced : No

Text #24
ID : 28
Format : VobSub
Muxing mode : zlib
Codec ID : S_VOBSUB
Codec ID/Info : Picture based subtitle format used on DVDs
Duration : 1 h 9 min
Bit rate : 12.0 kb/s
Count of elements : 895
Stream size : 6.00 MiB (0%)
Title : Commentary 2
Language : Japanese
Default : No
Forced : No

Text #25
ID : 29
Format : VobSub
Muxing mode : zlib
Codec ID : S_VOBSUB
Codec ID/Info : Picture based subtitle format used on DVDs
Duration : 1 h 10 min
Bit rate : 6 705 b/s
Count of elements : 595
Stream size : 3.36 MiB (0%)
Language : Norwegian Bokmal
Default : No
Forced : No

Text #26
ID : 30
Format : VobSub
Muxing mode : zlib
Codec ID : S_VOBSUB
Codec ID/Info : Picture based subtitle format used on DVDs
Duration : 1 h 10 min
Bit rate : 6 757 b/s
Count of elements : 595
Stream size : 3.39 MiB (0%)
Language : Spanish
Default : No
Forced : No

Text #27
ID : 31
Format : VobSub
Muxing mode : zlib
Codec ID : S_VOBSUB
Codec ID/Info : Picture based subtitle format used on DVDs
Duration : 1 h 10 min
Bit rate : 17.3 kb/s
Count of elements : 977
Stream size : 8.69 MiB (0%)
Title : Commentary 1
Language : Spanish
Default : No
Forced : No

Text #28
ID : 32
Format : VobSub
Muxing mode : zlib
Codec ID : S_VOBSUB
Codec ID/Info : Picture based subtitle format used on DVDs
Duration : 1 h 10 min
Bit rate : 22.1 kb/s
Count of elements : 1360
Stream size : 11.1 MiB (0%)
Title : Commentary 2
Language : Spanish
Default : No
Forced : No

Text #29
ID : 33
Format : VobSub
Muxing mode : zlib
Codec ID : S_VOBSUB
Codec ID/Info : Picture based subtitle format used on DVDs
Duration : 1 h 10 min
Bit rate : 6 959 b/s
Count of elements : 163
Stream size : 3.49 MiB (0%)
Title : Trivia
Language : Spanish
Default : No
Forced : No

Text #30
ID : 34
Format : VobSub
Muxing mode : zlib
Codec ID : S_VOBSUB
Codec ID/Info : Picture based subtitle format used on DVDs
Duration : 1 h 10 min
Bit rate : 6 840 b/s
Count of elements : 661
Stream size : 3.43 MiB (0%)
Language : Swedish
Default : No
Forced : No

Menu
00:00:00.000 : en:Chapter 01
00:02:03.039 : en:Chapter 02
00:06:41.150 : en:Chapter 03
00:14:09.265 : en:Chapter 04
00:18:29.399 : en:Chapter 05
00:23:00.629 : en:Chapter 06
00:30:48.304 : en:Chapter 07
00:34:22.685 : en:Chapter 08
00:35:21.869 : en:Chapter 09
00:42:00.476 : en:Chapter 10
00:47:53.412 : en:Chapter 11
00:53:41.218 : en:Chapter 12
00:58:16.576 : en:Chapter 13
01:03:49.992 : en:Chapter 14
01:05:57.036 : en:Chapter 15
01:07:57.531 : en:Chapter 16

Leave a Reply

Your email address will not be published. Required fields are marked *