For Your Eyes Only (1981) | 720p & 1080p & 2160p BluRay x265-BvS

For Your Eyes Only (1981)

James Bond is assigned to find a missing British vessel, equipped with a weapons encryption device and prevent it from falling into enemy hands.

Links: IMDB  – Trailer

Note: In English with English/Spanish/French Selectable Subtitles

DOWNLOAD

VIP

This content is reserved for registered users. Sign up here o login to be able to see it. Buy your VIP membership

FREE

  • For.Your.Eyes.Only.1981.2160p.WEB-DL.DTS-HD.MA.5.1.HEVC-AjA – 13GB  (ONLY VIP)

NFO

For.Your.Eyes.Only.1981.2160p.WEB-DL.DTS-HD.MA.5.1.HEVC-AjA

General
Unique ID : 298097618220438874647553291652030448034 (0xE043834F41F53640F5B8873AEA72C1A2)
Complete name : For.Your.Eyes.Only.1981.2160p.WEB-DL.DTS-HD.MA.5.1.HEVC-AjA.mkv
Format : Matroska
Format version : Version 4
File size : 13.1 GiB
Duration : 2 h 8 min
Overall bit rate mode : Variable
Overall bit rate : 14.6 Mb/s
Movie name : For Your Eyes Only (1981)
Encoded date : UTC 2022-05-06 01:43:11
Writing application : mkvmerge v66.0.0 (‘Josie’) 64-bit
Writing library : libebml v1.4.2 + libmatroska v1.6.4

Video
ID : 1
Format : HEVC
Format/Info : High Efficiency Video Coding
Format profile : Main [email protected]@High
Codec ID : V_MPEGH/ISO/HEVC
Duration : 2 h 7 min
Bit rate : 12.0 Mb/s
Width : 3 840 pixels
Height : 1 634 pixels
Display aspect ratio : 2.35:1
Frame rate mode : Constant
Frame rate : 23.976 FPS
Color space : YUV
Chroma subsampling : 4:2:0
Bit depth : 10 bits
Bits/(Pixel*Frame) : 0.080
Stream size : 10.7 GiB (82%)
Default : Yes
Forced : No
Color range : Limited
Color primaries : BT.709
Transfer characteristics : BT.709
Matrix coefficients : BT.709

Audio #1
ID : 2
Format : DTS XLL
Format/Info : Digital Theater Systems
Commercial name : DTS-HD Master Audio
Codec ID : A_DTS
Duration : 2 h 7 min
Bit rate mode : Variable
Bit rate : 2 262 kb/s
Channel(s) : 6 channels
Channel layout : C L R Ls Rs LFE
Sampling rate : 48.0 kHz
Frame rate : 93.750 FPS (512 SPF)
Bit depth : 24 bits
Compression mode : Lossless
Delay relative to video : 5 s 463 ms
Stream size : 2.02 GiB (15%)
Language : English
Default : Yes
Forced : No

Audio #2
ID : 3
Format : AC-3
Format/Info : Audio Coding 3
Commercial name : Dolby Digital
Codec ID : A_AC3
Duration : 2 h 7 min
Bit rate mode : Constant
Bit rate : 384 kb/s
Channel(s) : 6 channels
Channel layout : L R C LFE Ls Rs
Sampling rate : 48.0 kHz
Frame rate : 31.250 FPS (1536 SPF)
Compression mode : Lossy
Stream size : 351 MiB (3%)
Title : British
Language : English
Service kind : Complete Main
Default : Yes
Forced : No

Text #1
ID : 4
Format : UTF-8
Codec ID : S_TEXT/UTF8
Codec ID/Info : UTF-8 Plain Text
Duration : 2 h 4 min
Bit rate : 25 b/s
Count of elements : 627
Stream size : 23.1 KiB (0%)
Language : English
Default : No
Forced : No

Text #2
ID : 5
Format : UTF-8
Codec ID : S_TEXT/UTF8
Codec ID/Info : UTF-8 Plain Text
Duration : 2 h 6 min
Bit rate : 25 b/s
Count of elements : 896
Stream size : 23.3 KiB (0%)
Title : Latin American
Language : Spanish
Default : No
Forced : No

Text #3
ID : 6
Format : UTF-8
Codec ID : S_TEXT/UTF8
Codec ID/Info : UTF-8 Plain Text
Duration : 2 h 6 min
Bit rate : 26 b/s
Count of elements : 636
Stream size : 24.5 KiB (0%)
Language : French
Default : No
Forced : No

Text #4
ID : 7
Format : UTF-8
Codec ID : S_TEXT/UTF8
Codec ID/Info : UTF-8 Plain Text
Duration : 2 h 6 min
Bit rate : 25 b/s
Count of elements : 769
Stream size : 24.1 KiB (0%)
Title : Brazilian
Language : Portuguese
Default : No
Forced : No

Menu
00:00:05.463 : :Opening Sequence
00:06:44.028 : :Sharp ‘chuting
00:09:27.775 : :Main Titles
00:14:02.132 : :The Drax Estate
00:16:58.392 : :Centrifugal Bond
00:19:10.148 : :Dufour-Play
00:24:17.539 : :Safecracking
00:28:37.382 : :A Pheasant Pastime
00:33:52.321 : :Dogged Determination
00:39:34.121 : :Trailing Dr. Goodhead
00:43:07.626 : :Going, Going, Gondola
00:47:10.785 : :Toxic Encounters
00:52:03.620 : :By Sword & Piano Chord
00:55:42.797 : :Disarming Dr. Goodhead
00:58:39.182 : :Revelry in Rio
01:00:41.345 : :A Toothy Clown
01:04:47.091 : :The Tram Ram
01:11:12.726 : :Kidnapped
01:14:35.679 : :Magnificent…Bond?
01:18:46.429 : :What’s Mines Is Yours
01:20:31.701 : :Not Hanging Around
01:23:43.142 : :Of Beauties & Boas
01:33:20.636 : :Launching the Fleet
01:37:50.822 : :Some Like It Hot
01:42:57.212 : :Cockpit for Two
01:45:01.169 : :Mett the Space Race
01:53:58.247 : :In the City in Space
01:57:25.371 : :Mutiny
02:00:25.801 : :Battle in Space
02:01:17.811 : :Launching Drax
02:03:25.439 : :Globe Tracking
02:05:25.225 : :End Credits

(He/Him) He's BvSRips. I dedicate myself to sharing files on this blog for free. But it is difficult to maintain the links online for a long time, they are denounced and deleted, reuploading costs more work, that is why a section for VIP users was created, where they can download all the files published 100% in MEGA, as premium, without spend more. I would greatly appreciate your collaboration so that this blog remains online for a longer time.

BUY VIP HERE

Leave a Reply

Your email address will not be published. Required fields are marked *