Finch (2021) | 720p & 1080p & 2160p BluRay x265-BvS

Finch (2021)

On a post-apocalyptic Earth, a robot, built to protect the life of his dying creator’s beloved dog, learns about life, love, friendship, and what it means to be human.

Links: iMDB | Trailer

Note: In English with English Selectable Subtitles

DOWNLOAD

VIP

This content is reserved for registered users. Sign up here o login to be able to see it. Buy your VIP membership

FREE

  • Finch.2021.1080p.atvp.webrip.x265-BvS – 1.03GB
  • Finch.2021.2160p.ATVP.WEB-DL.DDP5.1.Atmos.DV.MP4.x265-TEPES – 20.30GB (ONLY VIP)
  • Finch.2021.2160p.ATVP.WEB-DL.DDP5.1.Atmos.HDR.HEVC-TEPES – 19.90GB (ONLY VIP)
  • Finch.2021.2160p.ATVP.WEB-DL.DDP5.1.Atmos.HEVC-TEPES – 17.10GB (ONLY VIP)

NFO

Finch.2021.2160p.ATVP.WEB-DL.DDP5.1.Atmos.HDR.HEVC-TEPES

General
Unique ID : 292499135020573871813075843982302966116 (0xDC0D48C6DBED0B5F19D9F65F7F78F164)
Complete name : D:\HDNLEN1102\Finch.2021.2160p.ATVP.WEB-DL.DDP5.1.Atmos.HDR.HEVC-TEPES\Finch.2021.2160p.ATVP.WEB-DL.DDP5.1.Atmos.HDR.HEVC-TEPES.mkv
Format : Matroska
Format version : Version 4
File size : 19.9 GiB
Duration : 1 h 55 min
Overall bit rate : 24.6 Mb/s
Writing application : mkvmerge v62.0.0 (‘Apollo’) 64-bit
Writing library : libebml v1.4.2 + libmatroska v1.6.4

Video
ID : 1
Format : HEVC
Format/Info : High Efficiency Video Coding
Format profile : Main [email protected]@High
HDR format : SMPTE ST 2086, HDR10 compatible
Codec ID : V_MPEGH/ISO/HEVC
Duration : 1 h 55 min
Bit rate : 23.9 Mb/s
Width : 3 840 pixels
Height : 1 608 pixels
Display aspect ratio : 2.40:1
Frame rate mode : Constant
Frame rate : 23.976 FPS
Color space : YUV
Chroma subsampling : 4:2:0 (Type 2)
Bit depth : 10 bits
Bits/(Pixel*Frame) : 0.161
Stream size : 19.3 GiB (97%)
Language : English
Default : Yes
Forced : No
Color range : Limited
Color primaries : BT.2020
Transfer characteristics : PQ
Matrix coefficients : BT.2020 non-constant
Mastering display color primaries : Display P3
Mastering display luminance : min: 0.0050 cd/m2, max: 1000 cd/m2
Maximum Content Light Level : 3201 cd/m2
Maximum Frame-Average Light Level : 386 cd/m2

Audio
ID : 2
Format : E-AC-3 JOC
Format/Info : Enhanced AC-3 with Joint Object Coding
Commercial name : Dolby Digital Plus with Dolby Atmos
Codec ID : A_EAC3
Duration : 1 h 55 min
Bit rate mode : Constant
Bit rate : 768 kb/s
Channel(s) : 6 channels
Channel layout : L R C LFE Ls Rs
Sampling rate : 48.0 kHz
Frame rate : 31.250 FPS (1536 SPF)
Compression mode : Lossy
Stream size : 635 MiB (3%)
Language : English
Service kind : Complete Main
Default : Yes
Forced : No
Complexity index : 16
Number of dynamic objects : 15
Bed channel count : 1 channel
Bed channel configuration : LFE

Text #1
ID : 3
Format : UTF-8
Codec ID : S_TEXT/UTF8
Codec ID/Info : UTF-8 Plain Text
Bit rate : 0 b/s
Count of elements : 0
Stream size : 0.00 Byte (0%)
Title : Forced
Language : English
Default : Yes
Forced : Yes

Text #2
ID : 4
Format : UTF-8
Codec ID : S_TEXT/UTF8
Codec ID/Info : UTF-8 Plain Text
Duration : 1 h 45 min
Bit rate : 35 b/s
Count of elements : 986
Stream size : 27.5 KiB (0%)
Language : English
Default : No
Forced : No

Text #3
ID : 5
Format : UTF-8
Codec ID : S_TEXT/UTF8
Codec ID/Info : UTF-8 Plain Text
Duration : 1 h 47 min
Bit rate : 41 b/s
Count of elements : 1210
Stream size : 32.6 KiB (0%)
Title : SDH
Language : English
Default : No
Forced : No

Text #4
ID : 6
Format : UTF-8
Codec ID : S_TEXT/UTF8
Codec ID/Info : UTF-8 Plain Text
Duration : 1 h 53 min
Bit rate : 48 b/s
Count of elements : 1036
Stream size : 40.5 KiB (0%)
Language : Arabic
Default : No
Forced : No

Text #5
ID : 7
Format : UTF-8
Codec ID : S_TEXT/UTF8
Codec ID/Info : UTF-8 Plain Text
Duration : 1 h 53 min
Bit rate : 51 b/s
Count of elements : 1017
Stream size : 42.8 KiB (0%)
Language : Bulgarian
Default : No
Forced : No

Text #6
ID : 8
Format : UTF-8
Codec ID : S_TEXT/UTF8
Codec ID/Info : UTF-8 Plain Text
Duration : 1 h 53 min
Bit rate : 30 b/s
Count of elements : 1037
Stream size : 25.1 KiB (0%)
Title : Simplified
Language : Chinese
Default : No
Forced : No

Text #7
ID : 9
Format : UTF-8
Codec ID : S_TEXT/UTF8
Codec ID/Info : UTF-8 Plain Text
Duration : 1 h 53 min
Bit rate : 31 b/s
Count of elements : 1039
Stream size : 26.2 KiB (0%)
Title : Traditional
Language : Chinese
Default : No
Forced : No

Text #8
ID : 10
Format : UTF-8
Codec ID : S_TEXT/UTF8
Codec ID/Info : UTF-8 Plain Text
Duration : 1 h 53 min
Bit rate : 32 b/s
Count of elements : 996
Stream size : 27.0 KiB (0%)
Language : Czech
Default : No
Forced : No

Text #9
ID : 11
Format : UTF-8
Codec ID : S_TEXT/UTF8
Codec ID/Info : UTF-8 Plain Text
Duration : 1 h 53 min
Bit rate : 31 b/s
Count of elements : 852
Stream size : 25.8 KiB (0%)
Language : Danish
Default : No
Forced : No

Text #10
ID : 12
Format : UTF-8
Codec ID : S_TEXT/UTF8
Codec ID/Info : UTF-8 Plain Text
Duration : 1 h 47 min
Bit rate : 37 b/s
Count of elements : 1038
Stream size : 29.2 KiB (0%)
Language : German
Default : No
Forced : No

Text #11
ID : 13
Format : UTF-8
Codec ID : S_TEXT/UTF8
Codec ID/Info : UTF-8 Plain Text
Duration : 1 h 53 min
Bit rate : 57 b/s
Count of elements : 1019
Stream size : 48.0 KiB (0%)
Language : Greek
Default : No
Forced : No

Text #12
ID : 14
Format : UTF-8
Codec ID : S_TEXT/UTF8
Codec ID/Info : UTF-8 Plain Text
Duration : 1 h 53 min
Bit rate : 34 b/s
Count of elements : 1009
Stream size : 28.3 KiB (0%)
Title : Latin American
Language : Spanish
Default : No
Forced : No

Text #13
ID : 15
Format : UTF-8
Codec ID : S_TEXT/UTF8
Codec ID/Info : UTF-8 Plain Text
Duration : 1 h 53 min
Bit rate : 36 b/s
Count of elements : 1000
Stream size : 30.3 KiB (0%)
Language : Spanish
Default : No
Forced : No

Text #14
ID : 16
Format : UTF-8
Codec ID : S_TEXT/UTF8
Codec ID/Info : UTF-8 Plain Text
Duration : 1 h 53 min
Bit rate : 32 b/s
Count of elements : 981
Stream size : 27.3 KiB (0%)
Language : Estonian
Default : No
Forced : No

Text #15
ID : 17
Format : UTF-8
Codec ID : S_TEXT/UTF8
Codec ID/Info : UTF-8 Plain Text
Duration : 1 h 53 min
Bit rate : 32 b/s
Count of elements : 998
Stream size : 27.2 KiB (0%)
Language : Finnish
Default : No
Forced : No

Text #16
ID : 18
Format : UTF-8
Codec ID : S_TEXT/UTF8
Codec ID/Info : UTF-8 Plain Text
Duration : 1 h 48 min
Bit rate : 33 b/s
Count of elements : 1150
Stream size : 26.5 KiB (0%)
Title : Canadian
Language : French
Default : No
Forced : No

Text #17
ID : 19
Format : UTF-8
Codec ID : S_TEXT/UTF8
Codec ID/Info : UTF-8 Plain Text
Duration : 1 h 48 min
Bit rate : 33 b/s
Count of elements : 1150
Stream size : 26.5 KiB (0%)
Language : French
Default : No
Forced : No

Text #18
ID : 20
Format : UTF-8
Codec ID : S_TEXT/UTF8
Codec ID/Info : UTF-8 Plain Text
Duration : 1 h 53 min
Bit rate : 46 b/s
Count of elements : 1037
Stream size : 39.1 KiB (0%)
Language : Hebrew
Default : No
Forced : No

Text #19
ID : 21
Format : UTF-8
Codec ID : S_TEXT/UTF8
Codec ID/Info : UTF-8 Plain Text
Duration : 1 h 53 min
Bit rate : 96 b/s
Count of elements : 1039
Stream size : 80.6 KiB (0%)
Language : Hindi
Default : No
Forced : No

Text #20
ID : 22
Format : UTF-8
Codec ID : S_TEXT/UTF8
Codec ID/Info : UTF-8 Plain Text
Duration : 1 h 53 min
Bit rate : 32 b/s
Count of elements : 1022
Stream size : 27.0 KiB (0%)
Language : Hungarian
Default : No
Forced : No

Text #21
ID : 23
Format : UTF-8
Codec ID : S_TEXT/UTF8
Codec ID/Info : UTF-8 Plain Text
Duration : 1 h 53 min
Bit rate : 32 b/s
Count of elements : 1023
Stream size : 27.1 KiB (0%)
Language : Indonesian
Default : No
Forced : No

Text #22
ID : 24
Format : UTF-8
Codec ID : S_TEXT/UTF8
Codec ID/Info : UTF-8 Plain Text
Duration : 1 h 47 min
Bit rate : 38 b/s
Count of elements : 1025
Stream size : 30.2 KiB (0%)
Language : Italian
Default : No
Forced : No

Text #23
ID : 25
Format : UTF-8
Codec ID : S_TEXT/UTF8
Codec ID/Info : UTF-8 Plain Text
Duration : 1 h 53 min
Bit rate : 35 b/s
Count of elements : 949
Stream size : 29.6 KiB (0%)
Language : Japanese
Default : No
Forced : No

Text #24
ID : 26
Format : UTF-8
Codec ID : S_TEXT/UTF8
Codec ID/Info : UTF-8 Plain Text
Duration : 1 h 53 min
Bit rate : 37 b/s
Count of elements : 1038
Stream size : 31.1 KiB (0%)
Language : Korean
Default : No
Forced : No

Text #25
ID : 27
Format : UTF-8
Codec ID : S_TEXT/UTF8
Codec ID/Info : UTF-8 Plain Text
Duration : 1 h 53 min
Bit rate : 33 b/s
Count of elements : 1007
Stream size : 27.9 KiB (0%)
Language : Lithuanian
Default : No
Forced : No

Text #26
ID : 28
Format : UTF-8
Codec ID : S_TEXT/UTF8
Codec ID/Info : UTF-8 Plain Text
Duration : 1 h 53 min
Bit rate : 35 b/s
Count of elements : 1030
Stream size : 29.4 KiB (0%)
Language : Latvian
Default : No
Forced : No

Text #27
ID : 29
Format : UTF-8
Codec ID : S_TEXT/UTF8
Codec ID/Info : UTF-8 Plain Text
Duration : 1 h 53 min
Bit rate : 33 b/s
Count of elements : 1024
Stream size : 27.6 KiB (0%)
Language : Malay
Default : No
Forced : No

Text #28
ID : 30
Format : UTF-8
Codec ID : S_TEXT/UTF8
Codec ID/Info : UTF-8 Plain Text
Duration : 1 h 53 min
Bit rate : 31 b/s
Count of elements : 990
Stream size : 26.5 KiB (0%)
Language : Norwegian Bokmal
Default : No
Forced : No

Text #29
ID : 31
Format : UTF-8
Codec ID : S_TEXT/UTF8
Codec ID/Info : UTF-8 Plain Text
Duration : 1 h 53 min
Bit rate : 32 b/s
Count of elements : 995
Stream size : 27.0 KiB (0%)
Language : Dutch
Default : No
Forced : No

Text #30
ID : 32
Format : UTF-8
Codec ID : S_TEXT/UTF8
Codec ID/Info : UTF-8 Plain Text
Duration : 1 h 53 min
Bit rate : 32 b/s
Count of elements : 997
Stream size : 27.0 KiB (0%)
Language : Polish
Default : No
Forced : No

Text #31
ID : 33
Format : UTF-8
Codec ID : S_TEXT/UTF8
Codec ID/Info : UTF-8 Plain Text
Duration : 1 h 53 min
Bit rate : 33 b/s
Count of elements : 1021
Stream size : 28.3 KiB (0%)
Language : Portuguese
Default : No
Forced : No

Text #32
ID : 34
Format : UTF-8
Codec ID : S_TEXT/UTF8
Codec ID/Info : UTF-8 Plain Text
Duration : 1 h 53 min
Bit rate : 32 b/s
Count of elements : 1020
Stream size : 27.3 KiB (0%)
Title : Brazilian
Language : Portuguese
Default : No
Forced : No

Text #33
ID : 35
Format : UTF-8
Codec ID : S_TEXT/UTF8
Codec ID/Info : UTF-8 Plain Text
Duration : 1 h 53 min
Bit rate : 54 b/s
Count of elements : 1044
Stream size : 45.8 KiB (0%)
Language : Russian
Default : No
Forced : No

Text #34
ID : 36
Format : UTF-8
Codec ID : S_TEXT/UTF8
Codec ID/Info : UTF-8 Plain Text
Duration : 1 h 53 min
Bit rate : 32 b/s
Count of elements : 1023
Stream size : 27.3 KiB (0%)
Language : Slovak
Default : No
Forced : No

Text #35
ID : 37
Format : UTF-8
Codec ID : S_TEXT/UTF8
Codec ID/Info : UTF-8 Plain Text
Duration : 1 h 53 min
Bit rate : 28 b/s
Count of elements : 986
Stream size : 24.1 KiB (0%)
Language : Slovenian
Default : No
Forced : No

Text #36
ID : 38
Format : UTF-8
Codec ID : S_TEXT/UTF8
Codec ID/Info : UTF-8 Plain Text
Duration : 1 h 53 min
Bit rate : 35 b/s
Count of elements : 939
Stream size : 29.2 KiB (0%)
Language : Swedish
Default : No
Forced : No

Text #37
ID : 39
Format : UTF-8
Codec ID : S_TEXT/UTF8
Codec ID/Info : UTF-8 Plain Text
Duration : 1 h 53 min
Bit rate : 110 b/s
Count of elements : 1037
Stream size : 92.0 KiB (0%)
Language : Tamil
Default : No
Forced : No

Text #38
ID : 40
Format : UTF-8
Codec ID : S_TEXT/UTF8
Codec ID/Info : UTF-8 Plain Text
Duration : 1 h 53 min
Bit rate : 93 b/s
Count of elements : 1037
Stream size : 77.6 KiB (0%)
Language : Telugu
Default : No
Forced : No

Text #39
ID : 41
Format : UTF-8
Codec ID : S_TEXT/UTF8
Codec ID/Info : UTF-8 Plain Text
Duration : 1 h 53 min
Bit rate : 75 b/s
Count of elements : 1037
Stream size : 63.2 KiB (0%)
Language : Thai
Default : No
Forced : No

Text #40
ID : 42
Format : UTF-8
Codec ID : S_TEXT/UTF8
Codec ID/Info : UTF-8 Plain Text
Duration : 1 h 53 min
Bit rate : 34 b/s
Count of elements : 1020
Stream size : 29.0 KiB (0%)
Language : Turkish
Default : No
Forced : No

Text #41
ID : 43
Format : UTF-8
Codec ID : S_TEXT/UTF8
Codec ID/Info : UTF-8 Plain Text
Duration : 1 h 53 min
Bit rate : 52 b/s
Count of elements : 1035
Stream size : 44.0 KiB (0%)
Language : Ukrainian
Default : No
Forced : No

Text #42
ID : 44
Format : UTF-8
Codec ID : S_TEXT/UTF8
Codec ID/Info : UTF-8 Plain Text
Duration : 1 h 53 min
Bit rate : 42 b/s
Count of elements : 1023
Stream size : 35.4 KiB (0%)
Language : Vietnamese
Default : No
Forced : No

Text #43
ID : 45
Format : UTF-8
Codec ID : S_TEXT/UTF8
Codec ID/Info : UTF-8 Plain Text
Duration : 1 h 53 min
Bit rate : 32 b/s
Count of elements : 1039
Stream size : 26.8 KiB (0%)
Title : Cantonese
Language : Chinese
Default : No
Forced : No

 

Finch.2021.2160p.ATVP.WEB-DL.DDP5.1.Atmos.DV.MP4.x265-TEPES

General
Complete name : Finch.2021.2160p.ATVP.WEB-DL.DDP5.1.Atmos.DV.HEVC-TEPES.mp4
Format : MPEG-4
Format profile : Base Media
Codec ID : isom (isom)
File size : 20.4 GiB
Duration : 1 h 55 min
Overall bit rate mode : Variable
Overall bit rate : 25.2 Mb/s
Encoded date : UTC 2021-11-05 01:23:18
Tagged date : UTC 2021-11-05 01:23:18
Writing application : GPAC-1.1.0-DEV-rev1248-g3e4a34873-master

Video
ID : 1
Format : HEVC
Format/Info : High Efficiency Video Coding
Format profile : Main [email protected]@High
HDR format : Dolby Vision, Version 1.0, dvhe.05.06, BL+RPU
Codec ID : dvhe
Codec ID/Info : High Efficiency Video Coding with Dolby Vision
Duration : 1 h 55 min
Bit rate : 24.5 Mb/s
Width : 3 840 pixels
Height : 1 608 pixels
Display aspect ratio : 2.40:1
Frame rate mode : Constant
Frame rate : 23.976 (24000/1001) FPS
Color space : YUV
Chroma subsampling : 4:2:0
Bit depth : 10 bits
Bits/(Pixel*Frame) : 0.165
Stream size : 19.8 GiB (97%)
Default : Yes
Alternate group : 1
Encoded date : UTC 2021-11-05 01:20:45
Tagged date : UTC 2021-11-05 01:23:54
Codec configuration box : hvcC+dvcC

Audio
ID : 2
Format : E-AC-3 JOC
Format/Info : Enhanced AC-3 with Joint Object Coding
Commercial name : Dolby Digital Plus with Dolby Atmos
Codec ID : ec-3
Duration : 1 h 55 min
Bit rate mode : Constant
Bit rate : 768 kb/s
Maximum bit rate : 811 kb/s
Channel(s) : 6 channels
Channel layout : L R C LFE Ls Rs
Sampling rate : 48.0 kHz
Frame rate : 31.250 FPS (1536 SPF)
Compression mode : Lossy
Stream size : 635 MiB (3%)
Language : English
Service kind : Complete Main
Encoded date : UTC 2021-11-05 01:18:56
Tagged date : UTC 2021-11-05 01:23:54
Complexity index : Not present / 16
Number of dynamic objects : 15
Bed channel count : 1 channel
Bed channel configuration : LFE

Text #1
ID : 3
Format : Timed Text
Codec ID : tx3g
Duration : 31 s 72 ms
Duration_FirstFrame : 30 s 405 ms
Bit rate mode : Variable
Bit rate : 2 b/s
Stream size : 9.00 Bytes (0%)
Title : Forced
Language : English
Forced : Yes
Encoded date : UTC 2021-11-05 01:23:53
Tagged date : UTC 2021-11-05 01:23:54

Text #2
ID : 4
Format : Timed Text
Codec ID : tx3g
Duration : 1 h 47 min
Bit rate mode : Variable
Bit rate : 40 b/s
Stream size : 31.3 KiB (0%)
Language : English
Forced : No
Encoded date : UTC 2021-11-05 01:23:53
Tagged date : UTC 2021-11-05 01:23:54

Text #3
ID : 5
Format : Timed Text
Codec ID : tx3g
Duration : 1 h 48 min
Bit rate mode : Variable
Bit rate : 47 b/s
Stream size : 37.4 KiB (0%)
Title : SDH
Language : English
Forced : No
Encoded date : UTC 2021-11-05 01:23:53
Tagged date : UTC 2021-11-05 01:23:54

Text #4
ID : 6
Format : Timed Text
Codec ID : tx3g
Duration : 1 h 55 min
Bit rate mode : Variable
Bit rate : 53 b/s
Stream size : 44.6 KiB (0%)
Language : Arabic
Forced : No
Encoded date : UTC 2021-11-05 01:23:53
Tagged date : UTC 2021-11-05 01:23:54

Text #5
ID : 7
Format : Timed Text
Codec ID : tx3g
Duration : 1 h 55 min
Bit rate mode : Variable
Bit rate : 55 b/s
Stream size : 46.8 KiB (0%)
Language : Bulgarian
Forced : No
Encoded date : UTC 2021-11-05 01:23:53
Tagged date : UTC 2021-11-05 01:23:54

Text #6
ID : 8
Format : Timed Text
Codec ID : tx3g
Duration : 1 h 55 min
Bit rate mode : Variable
Bit rate : 35 b/s
Stream size : 29.2 KiB (0%)
Title : Simplified
Language : Chinese
Forced : No
Encoded date : UTC 2021-11-05 01:23:53
Tagged date : UTC 2021-11-05 01:23:54

Text #7
ID : 9
Format : Timed Text
Codec ID : tx3g
Duration : 1 h 55 min
Bit rate mode : Variable
Bit rate : 36 b/s
Stream size : 30.2 KiB (0%)
Title : Traditional
Language : Chinese
Forced : No
Encoded date : UTC 2021-11-05 01:23:53
Tagged date : UTC 2021-11-05 01:23:54

Text #8
ID : 10
Format : Timed Text
Codec ID : tx3g
Duration : 1 h 55 min
Bit rate mode : Variable
Bit rate : 37 b/s
Stream size : 30.9 KiB (0%)
Language : Czech
Forced : No
Encoded date : UTC 2021-11-05 01:23:53
Tagged date : UTC 2021-11-05 01:23:54

Text #9
ID : 11
Format : Timed Text
Codec ID : tx3g
Duration : 1 h 55 min
Bit rate mode : Variable
Bit rate : 35 b/s
Stream size : 29.2 KiB (0%)
Language : Danish
Forced : No
Encoded date : UTC 2021-11-05 01:23:53
Tagged date : UTC 2021-11-05 01:23:54

Text #10
ID : 12
Format : Timed Text
Codec ID : tx3g
Duration : 1 h 49 min
Bit rate mode : Variable
Bit rate : 42 b/s
Stream size : 33.3 KiB (0%)
Language : German
Forced : No
Encoded date : UTC 2021-11-05 01:23:53
Tagged date : UTC 2021-11-05 01:23:54

Text #11
ID : 13
Format : Timed Text
Codec ID : tx3g
Duration : 1 h 55 min
Bit rate mode : Variable
Bit rate : 62 b/s
Stream size : 52.0 KiB (0%)
Language : Greek
Forced : No
Encoded date : UTC 2021-11-05 01:23:53
Tagged date : UTC 2021-11-05 01:23:54

Text #12
ID : 14
Format : Timed Text
Codec ID : tx3g
Duration : 1 h 55 min
Bit rate mode : Variable
Bit rate : 38 b/s
Stream size : 32.2 KiB (0%)
Title : Latin American
Language : Spanish
Forced : No
Encoded date : UTC 2021-11-05 01:23:53
Tagged date : UTC 2021-11-05 01:23:54

Text #13
ID : 15
Format : Timed Text
Codec ID : tx3g
Duration : 1 h 55 min
Bit rate mode : Variable
Bit rate : 40 b/s
Stream size : 34.2 KiB (0%)
Language : Spanish
Forced : No
Encoded date : UTC 2021-11-05 01:23:53
Tagged date : UTC 2021-11-05 01:23:54

Text #14
ID : 16
Format : Timed Text
Codec ID : tx3g
Duration : 1 h 55 min
Bit rate mode : Variable
Bit rate : 37 b/s
Stream size : 31.1 KiB (0%)
Language : Estonian
Forced : No
Encoded date : UTC 2021-11-05 01:23:53
Tagged date : UTC 2021-11-05 01:23:54

Text #15
ID : 17
Format : Timed Text
Codec ID : tx3g
Duration : 1 h 55 min
Bit rate mode : Variable
Bit rate : 37 b/s
Stream size : 31.1 KiB (0%)
Language : Finnish
Forced : No
Encoded date : UTC 2021-11-05 01:23:53
Tagged date : UTC 2021-11-05 01:23:54

Text #16
ID : 18
Format : Timed Text
Codec ID : tx3g
Duration : 1 h 49 min
Bit rate mode : Variable
Bit rate : 39 b/s
Stream size : 31.0 KiB (0%)
Title : Canadian
Language : French
Forced : No
Encoded date : UTC 2021-11-05 01:23:53
Tagged date : UTC 2021-11-05 01:23:54

Text #17
ID : 19
Format : Timed Text
Codec ID : tx3g
Duration : 1 h 49 min
Bit rate mode : Variable
Bit rate : 39 b/s
Stream size : 31.0 KiB (0%)
Language : French
Forced : No
Encoded date : UTC 2021-11-05 01:23:53
Tagged date : UTC 2021-11-05 01:23:54

Text #18
ID : 20
Format : Timed Text
Codec ID : tx3g
Duration : 1 h 55 min
Bit rate mode : Variable
Bit rate : 51 b/s
Stream size : 43.2 KiB (0%)
Language : Hebrew
Forced : No
Encoded date : UTC 2021-11-05 01:23:53
Tagged date : UTC 2021-11-05 01:23:54

Text #19
ID : 21
Format : Timed Text
Codec ID : tx3g
Duration : 1 h 55 min
Bit rate mode : Variable
Bit rate : 100 b/s
Stream size : 84.6 KiB (0%)
Language : Hindi
Forced : No
Encoded date : UTC 2021-11-05 01:23:53
Tagged date : UTC 2021-11-05 01:23:54

Text #20
ID : 22
Format : Timed Text
Codec ID : tx3g
Duration : 1 h 55 min
Bit rate mode : Variable
Bit rate : 37 b/s
Stream size : 31.0 KiB (0%)
Language : Hungarian
Forced : No
Encoded date : UTC 2021-11-05 01:23:53
Tagged date : UTC 2021-11-05 01:23:54

Text #21
ID : 23
Format : Timed Text
Codec ID : tx3g
Duration : 1 h 55 min
Bit rate mode : Variable
Bit rate : 37 b/s
Stream size : 31.1 KiB (0%)
Language : Indonesian
Forced : No
Encoded date : UTC 2021-11-05 01:23:53
Tagged date : UTC 2021-11-05 01:23:54

Text #22
ID : 24
Format : Timed Text
Codec ID : tx3g
Duration : 1 h 49 min
Bit rate mode : Variable
Bit rate : 43 b/s
Stream size : 34.2 KiB (0%)
Language : Italian
Forced : No
Encoded date : UTC 2021-11-05 01:23:53
Tagged date : UTC 2021-11-05 01:23:54

Text #23
ID : 25
Format : Timed Text
Codec ID : tx3g
Duration : 1 h 55 min
Bit rate mode : Variable
Bit rate : 39 b/s
Stream size : 33.2 KiB (0%)
Language : Japanese
Forced : No
Encoded date : UTC 2021-11-05 01:23:53
Tagged date : UTC 2021-11-05 01:23:54

Text #24
ID : 26
Format : Timed Text
Codec ID : tx3g
Duration : 1 h 55 min
Bit rate mode : Variable
Bit rate : 42 b/s
Stream size : 35.2 KiB (0%)
Language : Korean
Forced : No
Encoded date : UTC 2021-11-05 01:23:53
Tagged date : UTC 2021-11-05 01:23:54

Text #25
ID : 27
Format : Timed Text
Codec ID : tx3g
Duration : 1 h 55 min
Bit rate mode : Variable
Bit rate : 38 b/s
Stream size : 31.9 KiB (0%)
Language : Lithuanian
Forced : No
Encoded date : UTC 2021-11-05 01:23:53
Tagged date : UTC 2021-11-05 01:23:54

Text #26
ID : 28
Format : Timed Text
Codec ID : tx3g
Duration : 1 h 55 min
Bit rate mode : Variable
Bit rate : 40 b/s
Stream size : 33.4 KiB (0%)
Language : Latvian
Forced : No
Encoded date : UTC 2021-11-05 01:23:53
Tagged date : UTC 2021-11-05 01:23:54

Text #27
ID : 29
Format : Timed Text
Codec ID : tx3g
Duration : 1 h 55 min
Bit rate mode : Variable
Bit rate : 37 b/s
Stream size : 31.6 KiB (0%)
Language : Malay
Forced : No
Encoded date : UTC 2021-11-05 01:23:53
Tagged date : UTC 2021-11-05 01:23:54

Text #28
ID : 30
Format : Timed Text
Codec ID : tx3g
Duration : 1 h 55 min
Bit rate mode : Variable
Bit rate : 36 b/s
Stream size : 30.4 KiB (0%)
Language : Norwegian Bokmal
Forced : No
Encoded date : UTC 2021-11-05 01:23:53
Tagged date : UTC 2021-11-05 01:23:54

Text #29
ID : 31
Format : Timed Text
Codec ID : tx3g
Duration : 1 h 55 min
Bit rate mode : Variable
Bit rate : 37 b/s
Stream size : 30.8 KiB (0%)
Language : Dutch
Forced : No
Encoded date : UTC 2021-11-05 01:23:53
Tagged date : UTC 2021-11-05 01:23:54

Text #30
ID : 32
Format : Timed Text
Codec ID : tx3g
Duration : 1 h 55 min
Bit rate mode : Variable
Bit rate : 37 b/s
Stream size : 30.9 KiB (0%)
Language : Polish
Forced : No
Encoded date : UTC 2021-11-05 01:23:53
Tagged date : UTC 2021-11-05 01:23:54

Text #31
ID : 33
Format : Timed Text
Codec ID : tx3g
Duration : 1 h 55 min
Bit rate mode : Variable
Bit rate : 38 b/s
Stream size : 32.3 KiB (0%)
Language : Portuguese
Forced : No
Encoded date : UTC 2021-11-05 01:23:54
Tagged date : UTC 2021-11-05 01:23:54

Text #32
ID : 34
Format : Timed Text
Codec ID : tx3g
Duration : 1 h 55 min
Bit rate mode : Variable
Bit rate : 37 b/s
Stream size : 31.3 KiB (0%)
Title : Brazilian
Language : Portuguese
Forced : No
Encoded date : UTC 2021-11-05 01:23:54
Tagged date : UTC 2021-11-05 01:23:54

Text #33
ID : 35
Format : Timed Text
Codec ID : tx3g
Duration : 1 h 55 min
Bit rate mode : Variable
Bit rate : 59 b/s
Stream size : 49.9 KiB (0%)
Language : Russian
Forced : No
Encoded date : UTC 2021-11-05 01:23:54
Tagged date : UTC 2021-11-05 01:23:54

Text #34
ID : 36
Format : Timed Text
Codec ID : tx3g
Duration : 1 h 55 min
Bit rate mode : Variable
Bit rate : 37 b/s
Stream size : 31.3 KiB (0%)
Language : Slovak
Forced : No
Encoded date : UTC 2021-11-05 01:23:54
Tagged date : UTC 2021-11-05 01:23:54

Text #35
ID : 37
Format : Timed Text
Codec ID : tx3g
Duration : 1 h 55 min
Bit rate mode : Variable
Bit rate : 33 b/s
Stream size : 27.9 KiB (0%)
Language : Slovenian
Forced : No
Encoded date : UTC 2021-11-05 01:23:54
Tagged date : UTC 2021-11-05 01:23:54

Text #36
ID : 38
Format : Timed Text
Codec ID : tx3g
Duration : 1 h 55 min
Bit rate mode : Variable
Bit rate : 39 b/s
Stream size : 32.8 KiB (0%)
Language : Swedish
Forced : No
Encoded date : UTC 2021-11-05 01:23:54
Tagged date : UTC 2021-11-05 01:23:54

Text #37
ID : 39
Format : Timed Text
Codec ID : tx3g
Duration : 1 h 55 min
Bit rate mode : Variable
Bit rate : 114 b/s
Stream size : 96.1 KiB (0%)
Language : Tamil
Forced : No
Encoded date : UTC 2021-11-05 01:23:54
Tagged date : UTC 2021-11-05 01:23:54

Text #38
ID : 40
Format : Timed Text
Codec ID : tx3g
Duration : 1 h 55 min
Bit rate mode : Variable
Bit rate : 97 b/s
Stream size : 81.7 KiB (0%)
Language : Telugu
Forced : No
Encoded date : UTC 2021-11-05 01:23:54
Tagged date : UTC 2021-11-05 01:23:54

Text #39
ID : 41
Format : Timed Text
Codec ID : tx3g
Duration : 1 h 55 min
Bit rate mode : Variable
Bit rate : 80 b/s
Stream size : 67.2 KiB (0%)
Language : Thai
Forced : No
Encoded date : UTC 2021-11-05 01:23:54
Tagged date : UTC 2021-11-05 01:23:54

Text #40
ID : 42
Format : Timed Text
Codec ID : tx3g
Duration : 1 h 55 min
Bit rate mode : Variable
Bit rate : 39 b/s
Stream size : 33.0 KiB (0%)
Language : Turkish
Forced : No
Encoded date : UTC 2021-11-05 01:23:54
Tagged date : UTC 2021-11-05 01:23:54

Text #41
ID : 43
Format : Timed Text
Codec ID : tx3g
Duration : 1 h 55 min
Bit rate mode : Variable
Bit rate : 57 b/s
Stream size : 48.1 KiB (0%)
Language : Ukrainian
Forced : No
Encoded date : UTC 2021-11-05 01:23:54
Tagged date : UTC 2021-11-05 01:23:54

Text #42
ID : 44
Format : Timed Text
Codec ID : tx3g
Duration : 1 h 55 min
Bit rate mode : Variable
Bit rate : 47 b/s
Stream size : 39.4 KiB (0%)
Language : Vietnamese
Forced : No
Encoded date : UTC 2021-11-05 01:23:54
Tagged date : UTC 2021-11-05 01:23:54

Text #43
ID : 45
Format : Timed Text
Codec ID : tx3g
Duration : 1 h 55 min
Bit rate mode : Variable
Bit rate : 37 b/s
Stream size : 30.9 KiB (0%)
Title : Cantonese
Language : Chinese
Forced : No
Encoded date : UTC 2021-11-05 01:23:54
Tagged date : UTC 2021-11-05 01:23:54

Finch.2021.1080p.atvp.webrip.x265-BvS

General
Unique ID : 255152799639420030920834797285228426252 (0xBFF4A447E4436667F3951967DFA0340C)
Complete name : Finch.2021.1080p.atvp.webrip.x265-BvS.mkv
Format : Matroska
Format version : Version 4
File size : 1.03 GiB
Duration : 1 h 55 min
Overall bit rate : 1 281 kb/s
Movie name : BvSRips
Encoded date : UTC 2021-11-05 13:30:10
Writing application : mkvmerge v51.0.0 (‘I Wish’) 64-bit
Writing library : libebml v1.4.0 + libmatroska v1.6.2

Video
ID : 1
Format : HEVC
Format/Info : High Efficiency Video Coding
Format profile : [email protected]@Main
Codec ID : V_MPEGH/ISO/HEVC
Duration : 1 h 55 min
Bit rate : 1 023 kb/s
Width : 1 920 pixels
Height : 804 pixels
Display aspect ratio : 2.40:1
Frame rate mode : Constant
Frame rate : 23.976 (24000/1001) FPS
Color space : YUV
Chroma subsampling : 4:2:0
Bit depth : 8 bits
Bits/(Pixel*Frame) : 0.028
Stream size : 846 MiB (80%)
Writing library : x265 3.2.1+1-b5c86a64bbbe:[Windows][GCC 9.2.0][64 bit] 8bit+10bit+12bit
Encoding settings : cpuid=1111039 / frame-threads=4 / numa-pools=16 / wpp / no-pmode / no-pme / psnr / no-ssim / log-level=2 / input-csp=1 / input-res=1920×804 / interlace=0 / total-frames=0 / level-idc=0 / high-tier=1 / uhd-bd=0 / ref=2 / no-allow-non-conformance / no-repeat-headers / annexb / no-aud / no-hrd / info / hash=0 / no-temporal-layers / open-gop / min-keyint=24 / keyint=240 / gop-lookahead=0 / bframes=4 / b-adapt=0 / b-pyramid / bframe-bias=0 / rc-lookahead=15 / lookahead-slices=5 / scenecut=40 / radl=0 / no-splice / no-intra-refresh / ctu=64 / min-cu-size=8 / no-rect / no-amp / max-tu-size=32 / tu-inter-depth=1 / tu-intra-depth=1 / limit-tu=0 / rdoq-level=0 / dynamic-rd=0.00 / no-ssim-rd / signhide / no-tskip / nr-intra=0 / nr-inter=0 / no-constrained-intra / strong-intra-smoothing / max-merge=2 / limit-refs=3 / no-limit-modes / me=1 / subme=2 / merange=57 / temporal-mvp / no-hme / weightp / no-weightb / no-analyze-src-pics / deblock=0:0 / sao / no-sao-non-deblock / rd=2 / selective-sao=4 / early-skip / rskip / fast-intra / no-tskip-fast / no-cu-lossless / no-b-intra / no-splitrd-skip / rdpenalty=0 / psy-rd=0.00 / psy-rdoq=0.00 / no-rd-refine / no-lossless / cbqpoffs=0 / crqpoffs=0 / rc=crf / crf=22.0 / qcomp=0.60 / qpstep=4 / stats-write=0 / stats-read=0 / ipratio=1.40 / pbratio=1.30 / aq-mode=2 / aq-strength=0.00 / cutree / zone-count=0 / no-strict-cbr / qg-size=32 / no-rc-grain / qpmax=69 / qpmin=0 / no-const-vbv / sar=1 / overscan=0 / videoformat=5 / range=0 / colorprim=1 / transfer=1 / colormatrix=1 / chromaloc=0 / display-window=0 / cll=0,0 / min-luma=0 / max-luma=255 / log2-max-poc-lsb=8 / vui-timing-info / vui-hrd-info / slices=1 / no-opt-qp-pps / no-opt-ref-list-length-pps / no-multi-pass-opt-rps / scenecut-bias=0.05 / no-opt-cu-delta-qp / no-aq-motion / no-hdr / no-hdr-opt / no-dhdr10-opt / no-idr-recovery-sei / analysis-reuse-level=5 / scale-factor=0 / refine-intra=0 / refine-inter=0 / refine-mv=1 / refine-ctu-distortion=0 / no-limit-sao / ctu-info=0 / no-lowpass-dct / refine-analysis-type=0 / copy-pic=1 / max-ausize-factor=1.0 / no-dynamic-refine / no-single-sei / no-hevc-aq / no-svt / no-field / qp-adaptation-range=1.00
Default : Yes
Forced : No
Color range : Limited
Color primaries : BT.709
Transfer characteristics : BT.709
Matrix coefficients : BT.709

Audio
ID : 2
Format : AAC LC SBR
Format/Info : Advanced Audio Codec Low Complexity with Spectral Band Replication
Commercial name : HE-AAC
Format settings : NBC
Codec ID : A_AAC-5
Duration : 1 h 55 min
Bit rate : 256 kb/s
Channel(s) : 6 channels
Channel layout : C L R Ls Rs LFE
Sampling rate : 48.0 kHz
Frame rate : 23.438 FPS (2048 SPF)
Compression mode : Lossy
Delay relative to video : -105 ms
Stream size : 212 MiB (20%)
Language : English
Default : Yes
Forced : No

Text
ID : 3
Format : ASS
Codec ID : S_TEXT/ASS
Codec ID/Info : Advanced Sub Station Alpha
Duration : 4 s 500 ms
Bit rate : 149 b/s
Count of elements : 1
Compression mode : Lossless
Stream size : 84.0 Bytes (0%)
Default : Yes
Forced : No

Leave a Reply

Your email address will not be published. Required fields are marked *