| 720p & 1080p & 2160p BluRay x265-BvS

The defiant leader Moses rises up against Egyptian Pharaoh Ramses II, setting six hundred thousand slaves on a monumental journey of escape from Egypt and its terrifying cycle of deadly plagues.

Links: IMDB  – Trailer

Note: In English with English Selectable Subtitles

DOWNLOAD

VIP

This content is reserved for registered users. BUY A VIP MEMBERSHIP HERE and login to be able to see it.

FREE

  • Exodus – Gods and Kings (2014) (2160p BluRay x265 HEVC 10bit HDR AAC 7.1 Tigole) – 13.00GB

NFO

2160p BluRay x265 10bit HDR Tigole

General
Unique ID : 88546134905699955662476387629094142921 (0x429D5D822B23EA2B06667356EE0403C9)
Complete name : Exodus - Gods and Kings (2014) (2160p BluRay x265 10bit HDR Tigole).mkv
Format : Matroska
Format version : Version 4
File size : 13.0 GiB
Duration : 2 h 30 min
Overall bit rate : 12.3 Mb/s
Movie name : Exodus: Gods and Kings
Encoded date : UTC 2021-06-07 21:09:19
Writing application : mkvmerge v55.0.0 ('Waiting For Space') 64-bit
Writing library : libebml v1.4.2 + libmatroska v1.6.4

Video
ID : 1
Format : HEVC
Format/Info : High Efficiency Video Coding
Format profile : Main [email protected]@Main
HDR format : SMPTE ST 2086, HDR10 compatible
Codec ID : V_MPEGH/ISO/HEVC
Duration : 2 h 30 min
Bit rate : 11.1 Mb/s
Width : 3 840 pixels
Height : 1 600 pixels
Display aspect ratio : 2.40:1
Frame rate mode : Constant
Frame rate : 23.976 (24000/1001) FPS
Color space : YUV
Chroma subsampling : 4:2:0
Bit depth : 10 bits
Bits/(Pixel*Frame) : 0.076
Stream size : 11.7 GiB (90%)
Writing library : x265M - 3.4+35-772bb4c84:[Windows][GCC 10.2.0][64 bit] 10bit
Encoding settings : cpuid=1111039 / frame-threads=3 / numa-pools=8 / wpp / no-pmode / no-pme / no-psnr / no-ssim / log-level=2 / input-csp=1 / input-res=3840x1600 / interlace=0 / total-frames=216117 / level-idc=0 / high-tier=1 / uhd-bd=0 / ref=4 / no-allow-non-conformance / repeat-headers / annexb / no-aud / no-hrd / info / hash=0 / no-temporal-layers / open-gop / min-keyint=23 / keyint=250 / gop-lookahead=0 / bframes=8 / b-adapt=2 / b-pyramid / bframe-bias=0 / rc-lookahead=25 / lookahead-slices=4 / scenecut=40 / hist-scenecut=0 / radl=0 / no-splice / no-intra-refresh / ctu=64 / min-cu-size=8 / rect / no-amp / max-tu-size=32 / tu-inter-depth=1 / tu-intra-depth=1 / limit-tu=0 / rdoq-level=2 / dynamic-rd=0.00 / no-ssim-rd / signhide / no-tskip / nr-intra=0 / nr-inter=0 / no-constrained-intra / strong-intra-smoothing / max-merge=3 / limit-refs=3 / limit-modes / me=3 / subme=3 / merange=57 / temporal-mvp / no-frame-dup / no-hme / weightp / no-weightb / no-analyze-src-pics / deblock=0:0 / no-sao / no-sao-non-deblock / rd=4 / selective-sao=0 / no-early-skip / rskip / no-fast-intra / no-tskip-fast / no-cu-lossless / no-b-intra / no-splitrd-skip / rdpenalty=0 / psy-rd=2.00 / psy-rdoq=1.00 / no-rd-refine / no-lossless / cbqpoffs=0 / crqpoffs=0 / rc=crf / crf=16.0 / qcomp=0.60 / qpstep=4 / stats-write=0 / stats-read=0 / ipratio=1.40 / pbratio=1.30 / aq-mode=2 / aq-strength=1.00 / cutree / zone-count=0 / no-strict-cbr / qg-size=32 / no-rc-grain / qpmax=69 / qpmin=0 / no-const-vbv / sar=0 / overscan=0 / videoformat=5 / range=0 / colorprim=9 / transfer=16 / colormatrix=9 / chromaloc=0 / display-window=0 / master-display=G(13250,34500)B(7500,3000)R(34000,16000)WP(15635,16450)L(11000000,0) / cll=0,0 / min-luma=0 / max-luma=1023 / log2-max-poc-lsb=8 / vui-timing-info / vui-hrd-info / slices=1 / no-opt-qp-pps / no-opt-ref-list-length-pps / no-multi-pass-opt-rps / scenecut-bias=0.05 / hist-threshold=0.03 / no-opt-cu-delta-qp / aq-motion / hdr10 / hdr10-opt / no-dhdr10-opt / no-idr-recovery-sei / analysis-reuse-level=0 / analysis-save-reuse-level=0 / analysis-load-reuse-level=0 / scale-factor=0 / refine-intra=0 / refine-inter=0 / refine-mv=1 / refine-ctu-distortion=0 / no-limit-sao / ctu-info=0 / no-lowpass-dct / refine-analysis-type=0 / copy-pic=1 / max-ausize-factor=1.0 / no-dynamic-refine / no-single-sei / no-hevc-aq / no-svt / no-field / qp-adaptation-range=1.00 / scenecut-aware-qp=0conformance-window-offsets / right=0 / bottom=0 / decoder-max-rate=0 / no-vbv-live-multi-pass
Default : Yes
Forced : No
Color range : Limited
Color primaries : BT.2020
Transfer characteristics : PQ
Matrix coefficients : BT.2020 non-constant
Mastering display color primaries : Display P3
Mastering display luminance : min: 0.0000 cd/m2, max: 1100 cd/m2

Audio #1
ID : 2
Format : AAC LC
Format/Info : Advanced Audio Codec Low Complexity
Codec ID : A_AAC-2
Duration : 2 h 30 min
Bit rate : 1 025 kb/s
Channel(s) : 8 channels
Channel layout : C L R Ls Rs Lb Rb LFE
Sampling rate : 48.0 kHz
Frame rate : 46.875 FPS (1024 SPF)
Compression mode : Lossy
Delay relative to video : 20 ms
Stream size : 1.08 GiB (8%)
Language : English
Default : Yes
Forced : No

Audio #2
ID : 3
Format : AAC LC SBR
Format/Info : Advanced Audio Codec Low Complexity with Spectral Band Replication
Commercial name : HE-AAC
Format settings : Explicit
Codec ID : A_AAC-2
Duration : 2 h 30 min
Bit rate : 66.2 kb/s
Channel(s) : 2 channels
Channel layout : L R
Sampling rate : 48.0 kHz
Frame rate : 23.438 FPS (2048 SPF)
Compression mode : Lossy
Delay relative to video : 40 ms
Stream size : 70.8 MiB (1%)
Title : Commentary
Language : English
Default : No
Forced : No

Text #1
ID : 4
Format : VobSub
Muxing mode : zlib
Codec ID : S_VOBSUB
Codec ID/Info : Picture based subtitle format used on DVDs
Duration : 2 h 26 min
Bit rate : 6 299 b/s
Count of elements : 1649
Stream size : 6.59 MiB (0%)
Language : English
Default : No
Forced : No

Text #2
ID : 5
Format : VobSub
Muxing mode : zlib
Codec ID : S_VOBSUB
Codec ID/Info : Picture based subtitle format used on DVDs
Duration : 2 h 25 min
Bit rate : 18.0 kb/s
Count of elements : 2390
Stream size : 18.8 MiB (0%)
Title : Commentary
Language : English
Default : No
Forced : No

Text #3
ID : 6
Format : VobSub
Muxing mode : zlib
Codec ID : S_VOBSUB
Codec ID/Info : Picture based subtitle format used on DVDs
Duration : 2 h 29 min
Bit rate : 4 397 b/s
Count of elements : 1192
Stream size : 4.69 MiB (0%)
Language : Danish
Default : No
Forced : No

Text #4
ID : 7
Format : VobSub
Muxing mode : zlib
Codec ID : S_VOBSUB
Codec ID/Info : Picture based subtitle format used on DVDs
Duration : 2 h 30 min
Bit rate : 14.6 kb/s
Count of elements : 2262
Stream size : 15.7 MiB (0%)
Title : Commentary
Language : Danish
Default : No
Forced : No

Text #5
ID : 8
Format : VobSub
Muxing mode : zlib
Codec ID : S_VOBSUB
Codec ID/Info : Picture based subtitle format used on DVDs
Duration : 2 h 29 min
Bit rate : 4 032 b/s
Count of elements : 1056
Stream size : 4.30 MiB (0%)
Language : Dutch
Default : No
Forced : No

Text #6
ID : 9
Format : VobSub
Muxing mode : zlib
Codec ID : S_VOBSUB
Codec ID/Info : Picture based subtitle format used on DVDs
Duration : 2 h 30 min
Bit rate : 14.7 kb/s
Count of elements : 2229
Stream size : 15.8 MiB (0%)
Title : Commentary
Language : Dutch
Default : No
Forced : No

Text #7
ID : 10
Format : VobSub
Muxing mode : zlib
Codec ID : S_VOBSUB
Codec ID/Info : Picture based subtitle format used on DVDs
Duration : 2 h 29 min
Bit rate : 4 152 b/s
Count of elements : 1261
Stream size : 4.43 MiB (0%)
Language : Finnish
Default : No
Forced : No

Text #8
ID : 11
Format : VobSub
Muxing mode : zlib
Codec ID : S_VOBSUB
Codec ID/Info : Picture based subtitle format used on DVDs
Duration : 2 h 30 min
Bit rate : 11.6 kb/s
Count of elements : 2104
Stream size : 12.5 MiB (0%)
Title : Commentary
Language : Finnish
Default : No
Forced : No

Text #9
ID : 12
Format : VobSub
Muxing mode : zlib
Codec ID : S_VOBSUB
Codec ID/Info : Picture based subtitle format used on DVDs
Duration : 2 h 29 min
Bit rate : 4 012 b/s
Count of elements : 1218
Stream size : 4.28 MiB (0%)
Language : French
Default : No
Forced : No

Text #10
ID : 13
Format : VobSub
Muxing mode : zlib
Codec ID : S_VOBSUB
Codec ID/Info : Picture based subtitle format used on DVDs
Duration : 2 h 30 min
Bit rate : 14.0 kb/s
Count of elements : 2259
Stream size : 15.1 MiB (0%)
Title : Commentary
Language : French
Default : No
Forced : No

Text #11
ID : 14
Format : VobSub
Muxing mode : zlib
Codec ID : S_VOBSUB
Codec ID/Info : Picture based subtitle format used on DVDs
Duration : 2 h 29 min
Bit rate : 4 770 b/s
Count of elements : 1193
Stream size : 5.09 MiB (0%)
Language : German
Default : No
Forced : No

Text #12
ID : 15
Format : VobSub
Muxing mode : zlib
Codec ID : S_VOBSUB
Codec ID/Info : Picture based subtitle format used on DVDs
Duration : 2 h 29 min
Bit rate : 54 b/s
Count of elements : 10
Stream size : 59.9 KiB (0%)
Title : Forced
Language : German
Default : No
Forced : No

Text #13
ID : 16
Format : VobSub
Muxing mode : zlib
Codec ID : S_VOBSUB
Codec ID/Info : Picture based subtitle format used on DVDs
Duration : 2 h 30 min
Bit rate : 15.3 kb/s
Count of elements : 2279
Stream size : 16.4 MiB (0%)
Title : Commentary
Language : German
Default : No
Forced : No

Text #14
ID : 17
Format : VobSub
Muxing mode : zlib
Codec ID : S_VOBSUB
Codec ID/Info : Picture based subtitle format used on DVDs
Duration : 2 h 29 min
Bit rate : 4 491 b/s
Count of elements : 1268
Stream size : 4.79 MiB (0%)
Language : Italian
Default : No
Forced : No

Text #15
ID : 18
Format : VobSub
Muxing mode : zlib
Codec ID : S_VOBSUB
Codec ID/Info : Picture based subtitle format used on DVDs
Duration : 2 h 30 min
Bit rate : 13.6 kb/s
Count of elements : 2247
Stream size : 14.6 MiB (0%)
Title : Commentary
Language : Italian
Default : No
Forced : No

Text #16
ID : 19
Format : VobSub
Muxing mode : zlib
Codec ID : S_VOBSUB
Codec ID/Info : Picture based subtitle format used on DVDs
Duration : 2 h 29 min
Bit rate : 4 172 b/s
Count of elements : 1267
Stream size : 4.45 MiB (0%)
Language : Norwegian Bokmal
Default : No
Forced : No

Text #17
ID : 20
Format : VobSub
Muxing mode : zlib
Codec ID : S_VOBSUB
Codec ID/Info : Picture based subtitle format used on DVDs
Duration : 2 h 30 min
Bit rate : 14.3 kb/s
Count of elements : 2275
Stream size : 15.4 MiB (0%)
Title : Commentary
Language : Norwegian Bokmal
Default : No
Forced : No

Text #18
ID : 21
Format : VobSub
Muxing mode : zlib
Codec ID : S_VOBSUB
Codec ID/Info : Picture based subtitle format used on DVDs
Duration : 2 h 29 min
Bit rate : 4 346 b/s
Count of elements : 1191
Stream size : 4.64 MiB (0%)
Language : Spanish
Default : No
Forced : No

Text #19
ID : 22
Format : VobSub
Muxing mode : zlib
Codec ID : S_VOBSUB
Codec ID/Info : Picture based subtitle format used on DVDs
Duration : 2 h 29 min
Bit rate : 4 299 b/s
Count of elements : 1266
Stream size : 4.59 MiB (0%)
Language : Swedish
Default : No
Forced : No

Text #20
ID : 23
Format : VobSub
Muxing mode : zlib
Codec ID : S_VOBSUB
Codec ID/Info : Picture based subtitle format used on DVDs
Duration : 2 h 30 min
Bit rate : 14.4 kb/s
Count of elements : 2275
Stream size : 15.5 MiB (0%)
Title : Commentary
Language : Swedish
Default : No
Forced : No

Menu
00:00:00.000 : en:Chapter 01
00:03:55.026 : en:Chapter 02
00:06:51.702 : en:Chapter 03
00:11:47.540 : en:Chapter 04
00:14:29.451 : en:Chapter 05
00:18:37.407 : en:Chapter 06
00:22:15.834 : en:Chapter 07
00:26:50.859 : en:Chapter 08
00:30:31.162 : en:Chapter 09
00:36:41.032 : en:Chapter 10
00:40:48.195 : en:Chapter 11
00:44:49.561 : en:Chapter 12
00:48:47.799 : en:Chapter 13
00:51:16.448 : en:Chapter 14
00:54:22.217 : en:Chapter 15
00:57:32.657 : en:Chapter 16
01:00:30.960 : en:Chapter 17
01:04:41.544 : en:Chapter 18
01:06:49.046 : en:Chapter 19
01:11:01.882 : en:Chapter 20
01:16:53.692 : en:Chapter 21
01:21:18.039 : en:Chapter 22
01:24:30.356 : en:Chapter 23
01:28:08.533 : en:Chapter 24
01:30:54.157 : en:Chapter 25
01:34:14.565 : en:Chapter 26
01:37:20.543 : en:Chapter 27
01:39:20.120 : en:Chapter 28
01:42:39.945 : en:Chapter 29
01:46:50.028 : en:Chapter 30
01:49:02.661 : en:Chapter 31
01:52:18.314 : en:Chapter 32
01:57:29.876 : en:Chapter 33
02:00:23.799 : en:Chapter 34
02:05:41.283 : en:Chapter 35
02:07:30.976 : en:Chapter 36
02:13:38.468 : en:Chapter 37
02:16:21.882 : en:Chapter 38
02:19:39.996 : en:Chapter 39
02:23:19.799 : en:Chapter 40
02:30:12.128 : en:Chapter 41

The defiant leader Moses rises up against Egyptian Pharaoh Ramses II, setting six hundred thousand slaves on a monumental journey of escape from Egypt and its terrifying cycle of deadly plagues.

Leave a Reply

Your email address will not be published. Required fields are marked *