Dune (1984) | 720p & 1080p & 2160p BluRay x265-BvS

Dune (1984)

In the distant future, the known universe is ruled by Padishah Emperor Shaddam IV. The most important substance in the empire is the drug known as melange or “the spice”. It has many special properties, such as extending life and expanding consciousness. The most profitable and important of its properties is its ability to assist the Spacing Guild with Fold space, which allows safe, instantaneous interstellar travel.

Links: iMDB | Trailer

Note: In English with English Selectable Subtitles

DOWNLOAD

VIP

This content is reserved for registered users. BUY A VIP MEMBERSHIP HERE and login to be able to see it.

FREE

  • Dune.1984.UHD.2160p.BluRay.REMUX.HEVC.DV.DTS-HD.MA.5.1-AV4K – 82.50GB (ONLY VIP)

NFO

1080p.x265-BvS

General
Unique ID : 189617614756672579282632085367226076600 (0x8EA706339094719E1153041B0D438DB8)
Complete name : Dune.1984.UHD.2160p.BluRay.REMUX.HEVC.DV.DTS-HD.MA.5.1-AV4K.mkv
Format : Matroska
Format version : Version 2
File size : 82.5 GiB
Duration : 2 h 16 min
Overall bit rate mode : Variable
Overall bit rate : 86.4 Mb/s
Movie name : DUNE – 4K UHD
Encoded date : UTC 2021-08-26 00:59:57
Writing application : MakeMKV v1.16.4 win(x64-release)
Writing library : libmakemkv v1.16.4 (1.3.10/1.5.2) win(x64-release)

Video
ID : 1
ID in the original source medium : 4113 (0x1011)
Format : HEVC
Format/Info : High Efficiency Video Coding
Format profile : Main [email protected]@High
HDR format : SMPTE ST 2086, HDR10 compatible
Codec ID : V_MPEGH/ISO/HEVC
Duration : 2 h 16 min
Bit rate : 82.6 Mb/s
Width : 3 840 pixels
Height : 2 160 pixels
Display aspect ratio : 16:9
Frame rate mode : Constant
Frame rate : 23.976 (24000/1001) FPS
Color space : YUV
Chroma subsampling : 4:2:0 (Type 2)
Bit depth : 10 bits
Bits/(Pixel*Frame) : 0.415
Stream size : 78.9 GiB (96%)
Language : English
Default : No
Forced : No
Color range : Limited
Color primaries : BT.2020
Transfer characteristics : PQ
Matrix coefficients : BT.2020 non-constant
Mastering display color primaries : BT.2020
Mastering display luminance : min: 0.0001 cd/m2, max: 1000 cd/m2
Original source medium : Blu-ray

Audio #1
ID : 2
ID in the original source medium : 4352 (0x1100)
Format : DTS XLL
Format/Info : Digital Theater Systems
Commercial name : DTS-HD Master Audio
Codec ID : A_DTS
Duration : 2 h 16 min
Bit rate mode : Variable
Bit rate : 991 kb/s
Channel(s) : 2 channels
Channel layout : L R
Sampling rate : 48.0 kHz
Frame rate : 93.750 FPS (512 SPF)
Bit depth : 24 bits
Compression mode : Lossless
Stream size : 968 MiB (1%)
Title : Stereo
Language : English
Default : Yes
Forced : No
Original source medium : Blu-ray

Audio #2
ID : 3
ID in the original source medium : 4353 (0x1101)
Format : DTS XLL
Format/Info : Digital Theater Systems
Commercial name : DTS-HD Master Audio
Codec ID : A_DTS
Duration : 2 h 16 min
Bit rate mode : Variable
Bit rate : 1 776 kb/s
Channel(s) : 6 channels
Channel layout : C L R Ls Rs LFE
Sampling rate : 48.0 kHz
Frame rate : 93.750 FPS (512 SPF)
Bit depth : 24 bits
Compression mode : Lossless
Stream size : 1.69 GiB (2%)
Title : Surround 5.1
Language : English
Default : No
Forced : No
Original source medium : Blu-ray

Audio #3
ID : 4
ID in the original source medium : 4353 (0x1101)
Format : DTS
Format/Info : Digital Theater Systems
Codec ID : A_DTS
Duration : 2 h 16 min
Bit rate mode : Constant
Bit rate : 768 kb/s
Channel(s) : 6 channels
Channel layout : C L R Ls Rs LFE
Sampling rate : 48.0 kHz
Frame rate : 93.750 FPS (512 SPF)
Bit depth : 24 bits
Compression mode : Lossy
Stream size : 750 MiB (1%)
Title : Surround 5.1
Language : English
Default : No
Forced : No
Original source medium : Blu-ray

Audio #4
ID : 5
ID in the original source medium : 4354 (0x1102)
Format : AC-3
Format/Info : Audio Coding 3
Commercial name : Dolby Digital
Codec ID : A_AC3
Duration : 2 h 16 min
Bit rate mode : Constant
Bit rate : 112 kb/s
Channel(s) : 2 channels
Channel layout : L R
Sampling rate : 48.0 kHz
Frame rate : 31.250 FPS (1536 SPF)
Compression mode : Lossy
Stream size : 109 MiB (0%)
Title : Stereo
Language : English
Service kind : Complete Main
Default : No
Forced : No
Original source medium : Blu-ray

Audio #5
ID : 6
ID in the original source medium : 4355 (0x1103)
Format : AC-3
Format/Info : Audio Coding 3
Commercial name : Dolby Digital
Codec ID : A_AC3
Duration : 2 h 16 min
Bit rate mode : Constant
Bit rate : 112 kb/s
Channel(s) : 2 channels
Channel layout : L R
Sampling rate : 48.0 kHz
Frame rate : 31.250 FPS (1536 SPF)
Compression mode : Lossy
Stream size : 110 MiB (0%)
Title : Stereo
Language : English
Service kind : Complete Main
Default : No
Forced : No
Original source medium : Blu-ray

Text
ID : 7
ID in the original source medium : 4768 (0x12A0)
Format : PGS
Codec ID : S_HDMV/PGS
Codec ID/Info : Picture based subtitle format used on BDs/HD-DVDs
Duration : 2 h 12 min
Bit rate : 26.2 kb/s
Count of elements : 2588
Stream size : 24.7 MiB (0%)
Language : English
Default : No
Forced : No
Original source medium : Blu-ray

Menu
00:00:00.000 : en:Chapter 01
00:10:34.133 : en:Chapter 02
00:18:22.768 : en:Chapter 03
00:30:29.369 : en:Chapter 04
00:36:52.210 : en:Chapter 05
00:41:47.254 : en:Chapter 06
00:54:07.827 : en:Chapter 07
01:05:05.818 : en:Chapter 08
01:17:27.017 : en:Chapter 09
01:33:16.716 : en:Chapter 10
01:46:13.450 : en:Chapter 11
01:55:12.363 : en:Chapter 12
02:01:44.005 : en:Chapter 13
02:06:48.934 : en:Chapter 14

Leave a Reply

Your email address will not be published. Required fields are marked *