Dracula (1931) | 720p & 1080p & 2160p BluRay x265-BvS

Dracula (1931)

After a naive real estate agent succumbs to the will of Count Dracula, the two head to London where the vampire sleeps in his coffin by day and searches for potential victims by night.

Links: iMDB | Trailer

Note: In English with English/French/Spanish/German Selectable Subtitles

DOWNLOAD

VIP

This content is reserved for registered users. Sign up here o login to be able to see it. Buy your VIP membership

FREE

  • Dracula (1931) (2160p BluRay x265 HEVC 10bit HDR AAC 2.0 Tigole) – 10.70GB (ONLY VIP)

NFO

Dracula (1931) (2160p BluRay x265 HEVC 10bit HDR AAC 2.0 Tigole)

General
Unique ID : 282100477864965003002938035495354821523 (0xD43A93654F33936DF112675936FCEB93)
Complete name : Dracula (1931) (2160p BluRay x265 10bit HDR Tigole).mkv
Format : Matroska
Format version : Version 4
File size : 10.7 GiB
Duration : 1 h 14 min
Overall bit rate : 20.6 Mb/s
Movie name : Dracula
Encoded date : UTC 2021-10-29 03:22:04
Writing application : mkvmerge v55.0.0 (‘Waiting For Space’) 64-bit
Writing library : libebml v1.4.2 + libmatroska v1.6.4

Video
ID : 1
Format : HEVC
Format/Info : High Efficiency Video Coding
Format profile : Main [email protected]@Main
HDR format : SMPTE ST 2086, HDR10 compatible
Codec ID : V_MPEGH/ISO/HEVC
Duration : 1 h 14 min
Bit rate : 20.0 Mb/s
Width : 2 916 pixels
Height : 2 160 pixels
Display aspect ratio : 4:3
Frame rate mode : Constant
Frame rate : 23.976 (24000/1001) FPS
Color space : YUV
Chroma subsampling : 4:2:0
Bit depth : 10 bits
Bits/(Pixel*Frame) : 0.132
Stream size : 10.4 GiB (97%)
Writing library : x265M – 3.4+35-772bb4c84:[Windows][GCC 10.2.0][64 bit] 10bit
Encoding settings : cpuid=1111039 / frame-threads=2 / numa-pools=4,0 / wpp / no-pmode / no-pme / no-psnr / no-ssim / log-level=2 / input-csp=1 / input-res=2916×2160 / interlace=0 / total-frames=107104 / level-idc=0 / high-tier=1 / uhd-bd=0 / ref=4 / no-allow-non-conformance / repeat-headers / annexb / aud / no-hrd / info / hash=0 / no-temporal-layers / open-gop / min-keyint=23 / keyint=250 / gop-lookahead=0 / bframes=4 / b-adapt=2 / b-pyramid / bframe-bias=0 / rc-lookahead=25 / lookahead-slices=4 / scenecut=40 / hist-scenecut=0 / radl=0 / no-splice / no-intra-refresh / ctu=64 / min-cu-size=8 / rect / no-amp / max-tu-size=32 / tu-inter-depth=1 / tu-intra-depth=1 / limit-tu=0 / rdoq-level=2 / dynamic-rd=0.00 / no-ssim-rd / signhide / no-tskip / nr-intra=0 / nr-inter=0 / no-constrained-intra / strong-intra-smoothing / max-merge=3 / limit-refs=3 / limit-modes / me=3 / subme=3 / merange=57 / temporal-mvp / no-frame-dup / no-hme / weightp / no-weightb / no-analyze-src-pics / deblock=0:0 / no-sao / no-sao-non-deblock / rd=4 / selective-sao=0 / no-early-skip / rskip / no-fast-intra / no-tskip-fast / no-cu-lossless / no-b-intra / no-splitrd-skip / rdpenalty=0 / psy-rd=2.00 / psy-rdoq=1.00 / no-rd-refine / no-lossless / cbqpoffs=0 / crqpoffs=0 / rc=abr / bitrate=20000 / qcomp=0.60 / qpstep=4 / stats-write=0 / stats-read=2 / cplxblur=20.0 / qblur=0.5 / ipratio=1.40 / pbratio=1.30 / aq-mode=2 / aq-strength=1.00 / cutree / zone-count=0 / no-strict-cbr / qg-size=32 / no-rc-grain / qpmax=69 / qpmin=0 / no-const-vbv / sar=0 / overscan=0 / videoformat=5 / range=0 / colorprim=9 / transfer=16 / colormatrix=9 / chromaloc=0 / display-window=0 / master-display=G(13250,34500)B(7500,3000)R(34000,16000)WP(15635,16450)L(10000000,50) / cll=839,67 / min-luma=0 / max-luma=1023 / log2-max-poc-lsb=8 / vui-timing-info / vui-hrd-info / slices=1 / no-opt-qp-pps / no-opt-ref-list-length-pps / no-multi-pass-opt-rps / scenecut-bias=0.05 / hist-threshold=0.03 / no-opt-cu-delta-qp / aq-motion / hdr10 / hdr10-opt / no-dhdr10-opt / no-idr-recovery-sei / analysis-reuse-level=0 / analysis-save-reuse-level=0 / analysis-load-reuse-level=0 / scale-factor=0 / refine-intra=0 / refine-inter=0 / refine-mv=1 / refine-ctu-distortion=0 / no-limit-sao / ctu-info=0 / no-lowpass-dct / refine-analysis-type=0 / copy-pic=1 / max-ausize-factor=1.0 / no-dynamic-refine / no-single-sei / no-hevc-aq / no-svt / no-field / qp-adaptation-range=1.00 / scenecut-aware-qp=0conformance-window-offsets / right=0 / bottom=0 / decoder-max-rate=0 / no-vbv-live-multi-pass
Default : Yes
Forced : No
Color range : Limited
Color primaries : BT.2020
Transfer characteristics : PQ
Matrix coefficients : BT.2020 non-constant
Mastering display color primaries : Display P3
Mastering display luminance : min: 0.0050 cd/m2, max: 1000 cd/m2
Maximum Content Light Level : 839 cd/m2
Maximum Frame-Average Light Level : 67 cd/m2

Audio #1
ID : 2
Format : AAC LC
Format/Info : Advanced Audio Codec Low Complexity
Codec ID : A_AAC-2
Duration : 1 h 14 min
Bit rate : 105 kb/s
Channel(s) : 2 channels
Channel layout : L R
Sampling rate : 48.0 kHz
Frame rate : 46.875 FPS (1024 SPF)
Compression mode : Lossy
Delay relative to video : 20 ms
Stream size : 55.7 MiB (1%)
Language : English
Default : Yes
Forced : No

Audio #2
ID : 3
Format : AAC LC
Format/Info : Advanced Audio Codec Low Complexity
Codec ID : A_AAC-2
Duration : 1 h 14 min
Bit rate : 132 kb/s
Channel(s) : 2 channels
Channel layout : L R
Sampling rate : 48.0 kHz
Frame rate : 46.875 FPS (1024 SPF)
Compression mode : Lossy
Delay relative to video : 20 ms
Stream size : 71.0 MiB (1%)
Title : Isolated Score
Language : English
Default : No
Forced : No

Audio #3
ID : 4
Format : AAC LC SBR
Format/Info : Advanced Audio Codec Low Complexity with Spectral Band Replication
Commercial name : HE-AAC
Format settings : Explicit
Codec ID : A_AAC-2
Duration : 1 h 14 min
Bit rate : 66.2 kb/s
Channel(s) : 2 channels
Channel layout : L R
Sampling rate : 48.0 kHz
Frame rate : 23.438 FPS (2048 SPF)
Compression mode : Lossy
Delay relative to video : 40 ms
Stream size : 35.0 MiB (0%)
Title : Commentary 1
Language : English
Default : No
Forced : No

Audio #4
ID : 5
Format : AAC LC SBR
Format/Info : Advanced Audio Codec Low Complexity with Spectral Band Replication
Commercial name : HE-AAC
Format settings : Explicit
Codec ID : A_AAC-2
Duration : 1 h 14 min
Bit rate : 66.2 kb/s
Channel(s) : 2 channels
Channel layout : L R
Sampling rate : 48.0 kHz
Frame rate : 23.438 FPS (2048 SPF)
Compression mode : Lossy
Delay relative to video : 40 ms
Stream size : 35.1 MiB (0%)
Title : Commentary 2
Language : English
Default : No
Forced : No

Text #1
ID : 6
Format : VobSub
Muxing mode : zlib
Codec ID : S_VOBSUB
Codec ID/Info : Picture based subtitle format used on DVDs
Duration : 1 h 13 min
Bit rate : 9 379 b/s
Count of elements : 855
Stream size : 4.96 MiB (0%)
Language : English
Default : No
Forced : No

Text #2
ID : 7
Format : VobSub
Muxing mode : zlib
Codec ID : S_VOBSUB
Codec ID/Info : Picture based subtitle format used on DVDs
Duration : 1 h 14 min
Bit rate : 7 304 b/s
Count of elements : 161
Stream size : 3.88 MiB (0%)
Title : Trivia
Language : English
Default : No
Forced : No

Text #3
ID : 8
Format : VobSub
Muxing mode : zlib
Codec ID : S_VOBSUB
Codec ID/Info : Picture based subtitle format used on DVDs
Duration : 1 h 14 min
Bit rate : 23.4 kb/s
Count of elements : 1303
Stream size : 12.4 MiB (0%)
Title : Commentary 1
Language : English
Default : No
Forced : No

Text #4
ID : 9
Format : VobSub
Muxing mode : zlib
Codec ID : S_VOBSUB
Codec ID/Info : Picture based subtitle format used on DVDs
Duration : 1 h 14 min
Bit rate : 23.8 kb/s
Count of elements : 1353
Stream size : 12.6 MiB (0%)
Title : Commentary 2
Language : English
Default : No
Forced : No

Text #5
ID : 10
Format : VobSub
Muxing mode : zlib
Codec ID : S_VOBSUB
Codec ID/Info : Picture based subtitle format used on DVDs
Duration : 1 h 13 min
Bit rate : 5 841 b/s
Count of elements : 790
Stream size : 3.05 MiB (0%)
Language : Chinese
Default : No
Forced : No

Text #6
ID : 11
Format : VobSub
Muxing mode : zlib
Codec ID : S_VOBSUB
Codec ID/Info : Picture based subtitle format used on DVDs
Duration : 1 h 13 min
Bit rate : 7 859 b/s
Count of elements : 647
Stream size : 4.11 MiB (0%)
Language : Danish
Default : No
Forced : No

Text #7
ID : 12
Format : VobSub
Muxing mode : zlib
Codec ID : S_VOBSUB
Codec ID/Info : Picture based subtitle format used on DVDs
Duration : 1 h 13 min
Bit rate : 6 671 b/s
Count of elements : 570
Stream size : 3.49 MiB (0%)
Language : Dutch
Default : No
Forced : No

Text #8
ID : 13
Format : VobSub
Muxing mode : zlib
Codec ID : S_VOBSUB
Codec ID/Info : Picture based subtitle format used on DVDs
Duration : 1 h 13 min
Bit rate : 8 249 b/s
Count of elements : 648
Stream size : 4.31 MiB (0%)
Language : Finnish
Default : No
Forced : No

Text #9
ID : 14
Format : VobSub
Muxing mode : zlib
Codec ID : S_VOBSUB
Codec ID/Info : Picture based subtitle format used on DVDs
Duration : 1 h 13 min
Bit rate : 8 098 b/s
Count of elements : 648
Stream size : 4.23 MiB (0%)
Language : French
Default : No
Forced : No

Text #10
ID : 15
Format : VobSub
Muxing mode : zlib
Codec ID : S_VOBSUB
Codec ID/Info : Picture based subtitle format used on DVDs
Duration : 1 h 14 min
Bit rate : 17.9 kb/s
Count of elements : 1026
Stream size : 9.52 MiB (0%)
Title : Commentary 1
Language : French
Default : No
Forced : No

Text #11
ID : 16
Format : VobSub
Muxing mode : zlib
Codec ID : S_VOBSUB
Codec ID/Info : Picture based subtitle format used on DVDs
Duration : 1 h 14 min
Bit rate : 24.1 kb/s
Count of elements : 1353
Stream size : 12.8 MiB (0%)
Title : Commentary 2
Language : French
Default : No
Forced : No

Text #12
ID : 17
Format : VobSub
Muxing mode : zlib
Codec ID : S_VOBSUB
Codec ID/Info : Picture based subtitle format used on DVDs
Duration : 1 h 13 min
Bit rate : 8 529 b/s
Count of elements : 654
Stream size : 4.46 MiB (0%)
Language : German
Default : No
Forced : No

Text #13
ID : 18
Format : VobSub
Muxing mode : zlib
Codec ID : S_VOBSUB
Codec ID/Info : Picture based subtitle format used on DVDs
Duration : 44 min 28 s
Bit rate : 16 b/s
Count of elements : 2
Stream size : 5.41 KiB (0%)
Title : Forced
Language : German
Default : No
Forced : No

Text #14
ID : 19
Format : VobSub
Muxing mode : zlib
Codec ID : S_VOBSUB
Codec ID/Info : Picture based subtitle format used on DVDs
Duration : 1 h 14 min
Bit rate : 19.0 kb/s
Count of elements : 1031
Stream size : 10.1 MiB (0%)
Title : Commentary 1
Language : German
Default : No
Forced : No

Text #15
ID : 20
Format : VobSub
Muxing mode : zlib
Codec ID : S_VOBSUB
Codec ID/Info : Picture based subtitle format used on DVDs
Duration : 1 h 14 min
Bit rate : 24.4 kb/s
Count of elements : 1356
Stream size : 13.0 MiB (0%)
Title : Commentary 2
Language : German
Default : No
Forced : No

Text #16
ID : 21
Format : VobSub
Muxing mode : zlib
Codec ID : S_VOBSUB
Codec ID/Info : Picture based subtitle format used on DVDs
Duration : 1 h 13 min
Bit rate : 7 893 b/s
Count of elements : 648
Stream size : 4.13 MiB (0%)
Language : Italian
Default : No
Forced : No

Text #17
ID : 22
Format : VobSub
Muxing mode : zlib
Codec ID : S_VOBSUB
Codec ID/Info : Picture based subtitle format used on DVDs
Duration : 1 h 14 min
Bit rate : 19.2 kb/s
Count of elements : 1031
Stream size : 10.2 MiB (0%)
Title : Commentary 1
Language : Italian
Default : No
Forced : No

Text #18
ID : 23
Format : VobSub
Muxing mode : zlib
Codec ID : S_VOBSUB
Codec ID/Info : Picture based subtitle format used on DVDs
Duration : 1 h 14 min
Bit rate : 23.8 kb/s
Count of elements : 1356
Stream size : 12.6 MiB (0%)
Title : Commentary 2
Language : Italian
Default : No
Forced : No

Text #19
ID : 24
Format : VobSub
Muxing mode : zlib
Codec ID : S_VOBSUB
Codec ID/Info : Picture based subtitle format used on DVDs
Duration : 1 h 12 min
Bit rate : 5 048 b/s
Count of elements : 686
Stream size : 2.62 MiB (0%)
Language : Japanese
Default : No
Forced : No

Text #20
ID : 25
Format : VobSub
Muxing mode : zlib
Codec ID : S_VOBSUB
Codec ID/Info : Picture based subtitle format used on DVDs
Duration : 1 h 14 min
Bit rate : 10.1 kb/s
Count of elements : 784
Stream size : 5.36 MiB (0%)
Title : Commentary 1
Language : Japanese
Default : No
Forced : No

Text #21
ID : 26
Format : VobSub
Muxing mode : zlib
Codec ID : S_VOBSUB
Codec ID/Info : Picture based subtitle format used on DVDs
Duration : 1 h 14 min
Bit rate : 12.4 kb/s
Count of elements : 870
Stream size : 6.62 MiB (0%)
Title : Commentary 2
Language : Japanese
Default : No
Forced : No

Text #22
ID : 27
Format : VobSub
Muxing mode : zlib
Codec ID : S_VOBSUB
Codec ID/Info : Picture based subtitle format used on DVDs
Duration : 1 h 13 min
Bit rate : 7 927 b/s
Count of elements : 647
Stream size : 4.14 MiB (0%)
Language : Norwegian Bokmal
Default : No
Forced : No

Text #23
ID : 28
Format : VobSub
Muxing mode : zlib
Codec ID : S_VOBSUB
Codec ID/Info : Picture based subtitle format used on DVDs
Duration : 1 h 13 min
Bit rate : 7 406 b/s
Count of elements : 648
Stream size : 3.87 MiB (0%)
Language : Spanish
Default : No
Forced : No

Text #24
ID : 29
Format : VobSub
Muxing mode : zlib
Codec ID : S_VOBSUB
Codec ID/Info : Picture based subtitle format used on DVDs
Duration : 1 h 14 min
Bit rate : 18.8 kb/s
Count of elements : 1031
Stream size : 9.97 MiB (0%)
Title : Commentary 1
Language : Spanish
Default : No
Forced : No

Text #25
ID : 30
Format : VobSub
Muxing mode : zlib
Codec ID : S_VOBSUB
Codec ID/Info : Picture based subtitle format used on DVDs
Duration : 1 h 14 min
Bit rate : 23.6 kb/s
Count of elements : 1356
Stream size : 12.6 MiB (0%)
Title : Commentary 2
Language : Spanish
Default : No
Forced : No

Text #26
ID : 31
Format : VobSub
Muxing mode : zlib
Codec ID : S_VOBSUB
Codec ID/Info : Picture based subtitle format used on DVDs
Duration : 1 h 13 min
Bit rate : 7 708 b/s
Count of elements : 646
Stream size : 4.03 MiB (0%)
Language : Swedish
Default : No
Forced : No

Menu
00:00:00.000 : en:Chapter 01
00:01:10.695 : en:Chapter 02
00:05:15.189 : en:Chapter 03
00:09:11.092 : en:Chapter 04
00:12:00.344 : en:Chapter 05
00:18:09.254 : en:Chapter 06
00:21:26.410 : en:Chapter 07
00:27:29.689 : en:Chapter 08
00:29:53.416 : en:Chapter 09
00:32:49.926 : en:Chapter 10
00:36:28.561 : en:Chapter 11
00:40:27.383 : en:Chapter 12
00:45:36.233 : en:Chapter 13
00:49:22.876 : en:Chapter 14
00:58:23.917 : en:Chapter 15
01:00:50.480 : en:Chapter 16
01:06:29.777 : en:Chapter 17
01:10:28.265 : en:Chapter 18

Leave a Reply

Your email address will not be published. Required fields are marked *