Dr.No (1962) | 720p & 1080p & 2160p BluRay x265-BvS

Dr.No (1962)

A resourceful British government agent seeks answers in a case involving the disappearance of a colleague and the disruption of the American space program.

Links: IMDB  – Trailer

Note: In English with English/French/Portuguese/Spanish Selectable Subtitles

DOWNLOAD

VIP

This content is reserved for registered users. Sign up here o login to be able to see it. Buy your VIP membership

FREE

  • Dr.No.1962.2160p.WEB-DL.DTS-HD.MA.5.1.HEVC-AjA – 11.70GB (ONLY VIP)

NFO

Dr.No.1962.2160p.WEB-DL.DTS-HD.MA.5.1.HEVC-AjA

General
Unique ID : 123760565209945490525501672392745039190 (0x5D1B6AF808EFA30FB3DB8AD47A843556)
Complete name :  Dr.No.1962.2160p.WEB-DL.DTS-HD.MA.5.1.HEVC-AjA.mkv
Format : Matroska
Format version : Version 4
File size : 11.7 GiB
Duration : 1 h 49 min
Overall bit rate mode : Variable
Overall bit rate : 15.3 Mb/s
Movie name : Dr. No (1963)
Encoded date : UTC 2022-05-05 19:10:44
Writing application : mkvmerge v66.0.0 (‘Josie’) 64-bit
Writing library : libebml v1.4.2 + libmatroska v1.6.4

Video
ID : 1
Format : HEVC
Format/Info : High Efficiency Video Coding
Format profile : Main [email protected]@High
Codec ID : V_MPEGH/ISO/HEVC
Duration : 1 h 49 min
Bit rate : 11.9 Mb/s
Width : 3 600 pixels
Height : 2 160 pixels
Display aspect ratio : 5:3
Frame rate mode : Constant
Frame rate : 23.976 (23976/1000) FPS
Color space : YUV
Chroma subsampling : 4:2:0
Bit depth : 10 bits
Bits/(Pixel*Frame) : 0.064
Stream size : 9.10 GiB (78%)
Default : Yes
Forced : No
Color range : Limited
Color primaries : BT.709
Transfer characteristics : BT.709
Matrix coefficients : BT.709

Audio #1
ID : 2
Format : DTS XLL
Format/Info : Digital Theater Systems
Commercial name : DTS-HD Master Audio
Codec ID : A_DTS
Duration : 1 h 49 min
Bit rate mode : Variable
Bit rate : 3 050 kb/s
Channel(s) : 6 channels
Channel layout : C L R Ls Rs LFE
Sampling rate : 48.0 kHz
Frame rate : 93.750 FPS (512 SPF)
Bit depth : 24 bits
Compression mode : Lossless
Delay relative to video : 6 s 340 ms
Stream size : 2.34 GiB (20%)
Language : English
Default : Yes
Forced : No

Audio #2
ID : 3
Format : AC-3
Format/Info : Audio Coding 3
Commercial name : Dolby Digital
Codec ID : A_AC3
Duration : 1 h 49 min
Bit rate mode : Constant
Bit rate : 384 kb/s
Channel(s) : 6 channels
Channel layout : L R C LFE Ls Rs
Sampling rate : 48.0 kHz
Frame rate : 31.250 FPS (1536 SPF)
Compression mode : Lossy
Stream size : 302 MiB (3%)
Title : British
Language : English
Service kind : Complete Main
Default : Yes
Forced : No

Text #1
ID : 4
Format : UTF-8
Codec ID : S_TEXT/UTF8
Codec ID/Info : UTF-8 Plain Text
Duration : 1 h 45 min
Bit rate : 49 b/s
Count of elements : 956
Stream size : 38.6 KiB (0%)
Language : English
Default : No
Forced : No

Text #2
ID : 5
Format : UTF-8
Codec ID : S_TEXT/UTF8
Codec ID/Info : UTF-8 Plain Text
Duration : 1 h 45 min
Bit rate : 48 b/s
Count of elements : 1037
Stream size : 37.8 KiB (0%)
Title : Latin American
Language : Spanish
Default : No
Forced : No

Text #3
ID : 6
Format : UTF-8
Codec ID : S_TEXT/UTF8
Codec ID/Info : UTF-8 Plain Text
Duration : 1 h 45 min
Bit rate : 38 b/s
Count of elements : 795
Stream size : 29.8 KiB (0%)
Language : French
Default : No
Forced : No

Text #4
ID : 7
Format : UTF-8
Codec ID : S_TEXT/UTF8
Codec ID/Info : UTF-8 Plain Text
Duration : 1 h 47 min
Bit rate : 41 b/s
Count of elements : 987
Stream size : 32.9 KiB (0%)
Title : Brazilian
Language : Portuguese
Default : No
Forced : No

Menu
00:00:06.340 : :Chapter01
00:02:57.010 : :Chapter02
00:06:40.024 : :Chapter03
00:09:48.254 : :Chapter04
00:16:33.200 : :Chapter05
00:19:07.188 : :Chapter06
00:22:12.831 : :Chapter07
00:24:38.811 : :Chapter08
00:26:49.942 : :Chapter09
00:28:34.463 : :Chapter10
00:31:28.595 : :Chapter11
00:36:13.922 : :Chapter12
00:37:45.597 : :Chapter13
00:41:24.398 : :Chapter14
00:44:44.557 : :Chapter15
00:46:51.016 : :Chapter16
00:48:25.236 : :Chapter17
00:51:30.587 : :Chapter18
00:55:34.915 : :Chapter19
00:58:56.449 : :Chapter20
01:02:02.260 : :Chapter21
01:08:14.465 : :Chapter22
01:12:46.195 : :Chapter23
01:15:24.270 : :Chapter24
01:18:10.644 : :Chapter25
01:21:00.772 : :Chapter26
01:26:34.940 : :Chapter27
01:34:07.100 : :Chapter28
01:39:09.610 : :Chapter29
01:43:11.769 : :Chapter30
01:45:25.361 : :Chapter31
01:47:36.533 : :Chapter32
01:49:56.548 : :Chapter33

 

(He/Him) He's BvSRips. I dedicate myself to sharing files on this blog for free. But it is difficult to maintain the links online for a long time, they are denounced and deleted, reuploading costs more work, that is why a section for VIP users was created, where they can download all the files published 100% in MEGA, as premium, without spend more. I would greatly appreciate your collaboration so that this blog remains online for a longer time.

BUY VIP HERE

Leave a Reply

Your email address will not be published. Required fields are marked *