Diamonds Are Forever (1971) | 720p & 1080p & 2160p BluRay x265-BvS

Diamonds Are Forever (1971)

A diamond smuggling investigation leads James Bond to Las Vegas, where he uncovers an evil plot involving a rich business tycoon.

Links: IMDB  – Trailer

Note: In English with English/French/Portuguese/Spanish Selectable Subtitles

DOWNLOAD

VIP

This content is reserved for registered users. Sign up here o login to be able to see it. Buy your VIP membership

FREE

  • Diamonds.Are.Forever.1971.2160p.WEB-DL.DTS-HD.MA.5.1.HEVC-AjA – 21.20GB (ONLY VIP)

NFO

Diamonds.Are.Forever.1971.2160p.WEB-DL.DTS-HD.MA.5.1.HEVC-AjA

General
Unique ID : 320974321514799123096171201908787119876 (0xF17967DD2A73FD09206BD764E9800704)
Complete name : Diamonds.Are.Forever.1971.2160p.WEB-DL.DTS-HD.MA.5.1.HEVC-AjA.mkv
Format : Matroska
Format version : Version 4
File size : 21.3 GiB
Duration : 2 h 0 min
Overall bit rate mode : Variable
Overall bit rate : 25.3 Mb/s
Movie name : Diamonds Are Forever (1971)
Encoded date : UTC 2022-05-05 22:44:02
Writing application : mkvmerge v66.0.0 (‘Josie’) 64-bit
Writing library : libebml v1.4.2 + libmatroska v1.6.4

Video
ID : 1
Format : HEVC
Format/Info : High Efficiency Video Coding
Format profile : Main [email protected]@High
Codec ID : V_MPEGH/ISO/HEVC
Duration : 2 h 0 min
Bit rate : 20.7 Mb/s
Width : 3 840 pixels
Height : 1 634 pixels
Display aspect ratio : 2.35:1
Frame rate mode : Constant
Frame rate : 23.976 FPS
Color space : YUV
Chroma subsampling : 4:2:0
Bit depth : 10 bits
Bits/(Pixel*Frame) : 0.137
Stream size : 17.3 GiB (82%)
Default : Yes
Forced : No
Color range : Limited
Color primaries : BT.709
Transfer characteristics : BT.709
Matrix coefficients : BT.709

Audio #1
ID : 2
Format : AC-3
Format/Info : Audio Coding 3
Commercial name : Dolby Digital
Codec ID : A_AC3
Duration : 2 h 0 min
Bit rate mode : Constant
Bit rate : 224 kb/s
Channel(s) : 2 channels
Channel layout : L R
Sampling rate : 48.0 kHz
Frame rate : 31.250 FPS (1536 SPF)
Compression mode : Lossy
Delay relative to video : 4 s 869 ms
Stream size : 192 MiB (1%)
Title : English Commentary AC3 2.0 224 kbps
Language : English
Service kind : Commentary
Default : No
Forced : No

Audio #2
ID : 3
Format : DTS XLL
Format/Info : Digital Theater Systems
Commercial name : DTS-HD Master Audio
Codec ID : A_DTS
Duration : 2 h 0 min
Bit rate mode : Variable
Bit rate : 4 061 kb/s
Channel(s) : 6 channels
Channel layout : C L R Ls Rs LFE
Sampling rate : 48.0 kHz
Frame rate : 93.750 FPS (512 SPF)
Bit depth : 24 bits
Compression mode : Lossless
Delay relative to video : 4 s 869 ms
Stream size : 3.41 GiB (16%)
Language : English
Default : Yes
Forced : No

Audio #3
ID : 4
Format : AC-3
Format/Info : Audio Coding 3
Commercial name : Dolby Digital
Codec ID : A_AC3
Duration : 2 h 0 min
Bit rate mode : Constant
Bit rate : 384 kb/s
Channel(s) : 6 channels
Channel layout : L R C LFE Ls Rs
Sampling rate : 48.0 kHz
Frame rate : 31.250 FPS (1536 SPF)
Compression mode : Lossy
Stream size : 330 MiB (2%)
Title : British
Language : English
Service kind : Complete Main
Default : No
Forced : No

Text #1
ID : 5
Format : UTF-8
Codec ID : S_TEXT/UTF8
Codec ID/Info : UTF-8 Plain Text
Duration : 1 h 57 min
Bit rate : 44 b/s
Count of elements : 1066
Stream size : 38.5 KiB (0%)
Language : English
Default : No
Forced : No

Text #2
ID : 6
Format : UTF-8
Codec ID : S_TEXT/UTF8
Codec ID/Info : UTF-8 Plain Text
Duration : 1 h 59 min
Bit rate : 47 b/s
Count of elements : 1091
Stream size : 41.1 KiB (0%)
Title : Latin American
Language : Spanish
Default : No
Forced : No

Text #3
ID : 7
Format : UTF-8
Codec ID : S_TEXT/UTF8
Codec ID/Info : UTF-8 Plain Text
Duration : 1 h 59 min
Bit rate : 45 b/s
Count of elements : 1015
Stream size : 40.0 KiB (0%)
Language : French
Default : No
Forced : No

Text #4
ID : 8
Format : UTF-8
Codec ID : S_TEXT/UTF8
Codec ID/Info : UTF-8 Plain Text
Duration : 1 h 59 min
Bit rate : 42 b/s
Count of elements : 1086
Stream size : 37.0 KiB (0%)
Title : Brazilian
Language : Portuguese
Default : No
Forced : No

Menu
00:00:04.869 : :Chapter 1
00:05:01.039 : :Chapter 2
00:07:50.625 : :Chapter 3
00:10:36.333 : :Chapter 4
00:14:48.168 : :Chapter 5
00:17:20.695 : :Chapter 6
00:21:36.325 : :Chapter 7
00:25:42.405 : :Chapter 8
00:29:16.327 : :Chapter 9
00:34:15.751 : :Chapter 10
00:36:56.453 : :Chapter 11
00:39:41.034 : :Chapter 12
00:44:02.462 : :Chapter 13
00:50:04.532 : :Chapter 14
00:51:50.763 : :Chapter 15
00:56:38.926 : :Chapter 16
00:59:21.880 : :Chapter 17
01:03:38.512 : :Chapter 18
01:08:06.154 : :Chapter 19
01:13:01.032 : :Chapter 20
01:18:39.829 : :Chapter 21
01:20:34.443 : :Chapter 22
01:23:16.605 : :Chapter 23
01:30:26.827 : :Chapter 24
01:32:06.510 : :Chapter 25
01:33:11.366 : :Chapter 26
01:36:10.879 : :Chapter 27
01:38:04.242 : :Chapter 28
01:41:44.754 : :Chapter 29
01:47:27.680 : :Chapter 30
01:54:18.841 : :Chapter 31
01:58:39.226 : :Chapter 32

 

(He/Him) He's BvSRips. I dedicate myself to sharing files on this blog for free. But it is difficult to maintain the links online for a long time, they are denounced and deleted, reuploading costs more work, that is why a section for VIP users was created, where they can download all the files published 100% in MEGA, as premium, without spend more. I would greatly appreciate your collaboration so that this blog remains online for a longer time.

BUY VIP HERE

Leave a Reply

Your email address will not be published. Required fields are marked *