Death on the Nile (2022) | 720p & 1080p & 2160p BluRay x265-BvS

Detective Hercule Poirot investigates the murder of a young heiress aboard a cruise ship on the Nile River.

Links: iMDB | Trailer

Note: In English with English Selectable Subtitles

DOWNLOAD

VIP

This content is reserved for registered users. Sign up here o login to be able to see it. Buy your VIP membership

FREE

  • Death.on.the.Nile.2022.2160p.TrueHD.Atmos.7.1.DV.HYBRID.HEVC.REMUX-AjA – 48GB (ONLY VIP)
  • Death.On.The.Nile.2022.1080p.BDRip.X264.AC3.EVO – 3.86GB (ONLY VIP)
  • Death.On.The.Nile.2022.1080p.bdrip.x265-BvS – 1.18GB

NFO

Death.on.the.Nile.2022.2160p.TrueHD.Atmos.7.1.DV.HYBRID.HEVC.REMUX-AjA

General
Unique ID : 234474020636028678121381960351934697863 (0xB0660DC2B74974239787209F4D5DD187)
Complete name : Death.on.the.Nile.2022.2160p.TrueHD.Atmos.7.1.DV.HYBRID.HEVC.REMUX-AjA.mkv
Format : Matroska
Format version : Version 4
File size : 48.7 GiB
Duration : 2 h 6 min
Overall bit rate mode : Variable
Overall bit rate : 55.0 Mb/s
Movie name : Death on the Nile (2022)
Encoded date : UTC 2022-03-30 06:25:26
Writing application : mkvmerge v65.0.0 (‘Too Much’) 64-bit
Writing library : libebml v1.4.2 + libmatroska v1.6.4
IMDB : tt7657566
TMDB : movie/505026

Video
ID : 1
Format : HEVC
Format/Info : High Efficiency Video Coding
Format profile : Main [email protected]@High
HDR format : Dolby Vision, Version 1.0, dvhe.08.06, BL+RPU, HDR10 compatible / SMPTE ST 2086, HDR10 compatible
Codec ID : V_MPEGH/ISO/HEVC
Duration : 2 h 6 min
Bit rate : 47.4 Mb/s
Width : 3 840 pixels
Height : 2 160 pixels
Display aspect ratio : 16:9
Frame rate mode : Constant
Frame rate : 23.976 (24000/1001) FPS
Color space : YUV
Chroma subsampling : 4:2:0 (Type 2)
Bit depth : 10 bits
Bits/(Pixel*Frame) : 0.238
Stream size : 42.0 GiB (86%)
Writing library : ATEME Titan File 3.9.6 (4.9.6.2)
Default : Yes
Forced : No
Color range : Limited
Color primaries : BT.2020
Transfer characteristics : PQ
Matrix coefficients : BT.2020 non-constant
Mastering display color primaries : Display P3
Mastering display luminance : min: 0.0050 cd/m2, max: 1000 cd/m2

Audio #1
ID : 2
Format : MLP FBA 16-ch
Format/Info : Meridian Lossless Packing FBA with 16-channel presentation
Commercial name : Dolby TrueHD with Dolby Atmos
Codec ID : A_TRUEHD
Duration : 2 h 6 min
Bit rate mode : Variable
Bit rate : 6 723 kb/s
Maximum bit rate : 12.1 Mb/s
Channel(s) : 8 channels
Channel layout : L R C LFE Ls Rs Lb Rb
Sampling rate : 48.0 kHz
Frame rate : 1 200.000 FPS (40 SPF)
Compression mode : Lossless
Stream size : 5.96 GiB (12%)
Title : Dolby TrueHD/Atmos Audio / 7.1+13 objects / 48 kHz / 6723 kbps / 24-bit
Language : English
Default : Yes
Forced : No
Number of dynamic objects : 13
Bed channel count : 1 channel
Bed channel configuration : LFE

Audio #2
ID : 3
Format : AC-3
Format/Info : Audio Coding 3
Commercial name : Dolby Digital
Codec ID : A_AC3
Duration : 2 h 6 min
Bit rate mode : Constant
Bit rate : 640 kb/s
Channel(s) : 6 channels
Channel layout : L R C LFE Ls Rs
Sampling rate : 48.0 kHz
Frame rate : 31.250 FPS (1536 SPF)
Compression mode : Lossy
Stream size : 581 MiB (1%)
Title : Compatibility Track / Dolby Digital Audio / 5.1 / 48 kHz / 640 kbps
Language : English
Service kind : Complete Main
Default : No
Forced : No

Text #1
ID : 4
Format : PGS
Muxing mode : zlib
Codec ID : S_HDMV/PGS
Codec ID/Info : Picture based subtitle format used on BDs/HD-DVDs
Duration : 19 min 48 s
Bit rate : 4 553 b/s
Count of elements : 80
Stream size : 661 KiB (0%)
Title : Forced for non-English dialogue
Language : English
Default : Yes
Forced : Yes

Text #2
ID : 5
Format : PGS
Muxing mode : zlib
Codec ID : S_HDMV/PGS
Codec ID/Info : Picture based subtitle format used on BDs/HD-DVDs
Duration : 1 h 58 min
Bit rate : 49.4 kb/s
Count of elements : 4110
Stream size : 42.0 MiB (0%)
Title : SDH
Language : English
Default : No
Forced : No

Text #3
ID : 6
Format : PGS
Muxing mode : zlib
Codec ID : S_HDMV/PGS
Codec ID/Info : Picture based subtitle format used on BDs/HD-DVDs
Duration : 2 h 5 min
Bit rate : 35.6 kb/s
Count of elements : 2504
Stream size : 32.0 MiB (0%)
Language : Danish
Default : No
Forced : No

Text #4
ID : 7
Format : PGS
Muxing mode : zlib
Codec ID : S_HDMV/PGS
Codec ID/Info : Picture based subtitle format used on BDs/HD-DVDs
Duration : 2 h 6 min
Bit rate : 30.5 kb/s
Count of elements : 2700
Stream size : 27.5 MiB (0%)
Language : Dutch
Default : No
Forced : No

Text #5
ID : 8
Format : PGS
Muxing mode : zlib
Codec ID : S_HDMV/PGS
Codec ID/Info : Picture based subtitle format used on BDs/HD-DVDs
Duration : 2 h 6 min
Bit rate : 40.4 kb/s
Count of elements : 3566
Stream size : 36.4 MiB (0%)
Language : Finnish
Default : No
Forced : No

Text #6
ID : 9
Format : PGS
Muxing mode : zlib
Codec ID : S_HDMV/PGS
Codec ID/Info : Picture based subtitle format used on BDs/HD-DVDs
Duration : 2 h 5 min
Bit rate : 39.7 kb/s
Count of elements : 3466
Stream size : 35.7 MiB (0%)
Title : Québécois
Language : French
Default : No
Forced : No

Text #7
ID : 10
Format : PGS
Muxing mode : zlib
Codec ID : S_HDMV/PGS
Codec ID/Info : Picture based subtitle format used on BDs/HD-DVDs
Duration : 2 h 6 min
Bit rate : 35.0 kb/s
Count of elements : 3170
Stream size : 31.6 MiB (0%)
Title : Parisian
Language : French
Default : No
Forced : No

Text #8
ID : 11
Format : PGS
Muxing mode : zlib
Codec ID : S_HDMV/PGS
Codec ID/Info : Picture based subtitle format used on BDs/HD-DVDs
Duration : 2 h 5 min
Bit rate : 38.7 kb/s
Count of elements : 3454
Stream size : 34.9 MiB (0%)
Language : German
Default : No
Forced : No

Text #9
ID : 12
Format : PGS
Muxing mode : zlib
Codec ID : S_HDMV/PGS
Codec ID/Info : Picture based subtitle format used on BDs/HD-DVDs
Duration : 2 h 5 min
Bit rate : 40.4 kb/s
Count of elements : 3572
Stream size : 36.4 MiB (0%)
Language : Italian
Default : No
Forced : No

Text #10
ID : 13
Format : PGS
Muxing mode : zlib
Codec ID : S_HDMV/PGS
Codec ID/Info : Picture based subtitle format used on BDs/HD-DVDs
Duration : 2 h 5 min
Bit rate : 36.3 kb/s
Count of elements : 3564
Stream size : 32.7 MiB (0%)
Language : Norwegian
Default : No
Forced : No

Text #11
ID : 14
Format : PGS
Muxing mode : zlib
Codec ID : S_HDMV/PGS
Codec ID/Info : Picture based subtitle format used on BDs/HD-DVDs
Duration : 1 h 58 min
Bit rate : 42.9 kb/s
Count of elements : 3572
Stream size : 36.5 MiB (0%)
Title : Latin American
Language : Spanish
Default : No
Forced : No

Text #12
ID : 15
Format : PGS
Muxing mode : zlib
Codec ID : S_HDMV/PGS
Codec ID/Info : Picture based subtitle format used on BDs/HD-DVDs
Duration : 1 h 59 min
Bit rate : 32.9 kb/s
Count of elements : 2314
Stream size : 28.0 MiB (0%)
Language : Swedish
Default : No
Forced : No

Menu
00:00:00.000 : en:Chapter 1
00:07:16.227 : en:Chapter 2
00:16:02.002 : en:Chapter 3
00:18:49.878 : en:Chapter 4
00:19:45.559 : en:Chapter 5
00:26:59.242 : en:Chapter 6
00:29:32.145 : en:Chapter 7
00:32:49.217 : en:Chapter 8
00:37:22.990 : en:Chapter 9
00:39:09.513 : en:Chapter 10
00:44:45.599 : en:Chapter 11
00:48:15.434 : en:Chapter 12
00:53:57.150 : en:Chapter 13
00:58:43.937 : en:Chapter 14
01:03:51.911 : en:Chapter 15
01:09:06.809 : en:Chapter 16
01:12:42.024 : en:Chapter 17
01:15:27.523 : en:Chapter 18
01:17:52.084 : en:Chapter 19
01:23:36.886 : en:Chapter 20
01:27:42.590 : en:Chapter 21
01:31:19.724 : en:Chapter 22
01:35:35.438 : en:Chapter 23
01:43:00.924 : en:Chapter 24
01:54:49.132 : en:Chapter 25
01:59:51.767 : en:Chapter 26

 

Death.On.The.Nile.2022.1080p.BDRip.X264.AC3.EVO

General
Unique ID : 152341400819948506593208893514036810727 (0x729BE2F5A7C75173E010697486F013E7)
Complete name : Death.On.The.Nile.2022.1080p.BDRip.X264.AC3.EVO.mkv
Format : Matroska
Format version : Version 2
File size : 3.87 GiB
Duration : 2 h 6 min
Overall bit rate : 4 364 kb/s
Movie name : EVO
Encoded date : UTC 2022-03-26T11:34:25Z
Writing application : HandBrake 0.10.5 2016021100
Writing library : Lavf55.12.0

Video
ID : 1
Format : AVC
Format/Info : Advanced Video Codec
Format profile : [email protected]
Format settings : CABAC / 4 Ref Frames
Format settings, CABAC : Yes
Format settings, Reference frames : 4 frames
Codec ID : V_MPEG4/ISO/AVC
Duration : 2 h 6 min
Bit rate : 4 014 kb/s
Width : 1 920 pixels
Height : 804 pixels
Display aspect ratio : 2.40:1
Frame rate mode : Constant
Frame rate : 23.976 (24000/1001) FPS
Color space : YUV
Chroma subsampling : 4:2:0
Bit depth : 8 bits
Scan type : Progressive
Bits/(Pixel*Frame) : 0.108
Stream size : 3.45 GiB (89%)
Writing library : x264 core 142 r2479 dd79a61
Encoding settings : cabac=1 / ref=1 / deblock=1:0:0 / analyse=0x3:0x3 / me=dia / subme=1 / psy=1 / psy_rd=1.00:0.00 / mixed_ref=0 / me_range=16 / chroma_me=1 / trellis=0 / 8x8dct=1 / cqm=0 / deadzone=21,11 / fast_pskip=1 / chroma_qp_offset=0 / threads=24 / lookahead_threads=4 / sliced_threads=0 / nr=0 / decimate=1 / interlaced=0 / bluray_compat=0 / constrained_intra=0 / bframes=3 / b_pyramid=2 / b_adapt=1 / b_bias=0 / direct=1 / weightb=1 / open_gop=0 / weightp=1 / keyint=240 / keyint_min=24 / scenecut=40 / intra_refresh=0 / rc_lookahead=0 / rc=abr / mbtree=0 / bitrate=4014 / ratetol=1.0 / qcomp=0.60 / qpmin=0 / qpmax=69 / qpstep=4 / vbv_maxrate=62500 / vbv_bufsize=78125 / nal_hrd=none / filler=0 / ip_ratio=1.40 / pb_ratio=1.30 / aq=1:1.00
Default : Yes
Forced : No
Color range : Limited
Color primaries : BT.709
Transfer characteristics : BT.709
Matrix coefficients : BT.709

Audio
ID : 2
Format : AC-3
Format/Info : Audio Coding 3
Commercial name : Dolby Digital
Codec ID : A_AC3
Duration : 2 h 6 min
Bit rate mode : Constant
Bit rate : 384 kb/s
Channel(s) : 6 channels
Channel layout : L R C LFE Ls Rs
Sampling rate : 48.0 kHz
Frame rate : 31.250 FPS (1536 SPF)
Compression mode : Lossy
Delay relative to video : -5 ms
Stream size : 349 MiB (9%)
Title : Surround
Language : English
Service kind : Complete Main
Default : Yes
Forced : No

Menu
00:00:00.000 : :Chapter 1
00:07:16.394 : :Chapter 2
00:16:02.127 : :Chapter 3
00:18:50.003 : :Chapter 4
00:19:45.684 : :Chapter 5
00:26:59.367 : :Chapter 6
00:29:32.270 : :Chapter 7
00:32:49.384 : :Chapter 8
00:37:23.115 : :Chapter 9
00:39:09.680 : :Chapter 10
00:44:45.724 : :Chapter 11
00:48:15.601 : :Chapter 12
00:53:57.275 : :Chapter 13
00:58:44.104 : :Chapter 14
01:03:52.036 : :Chapter 15
01:09:06.934 : :Chapter 16
01:12:42.149 : :Chapter 17
01:15:27.689 : :Chapter 18
01:17:52.251 : :Chapter 19
01:23:37.053 : :Chapter 20
01:27:42.715 : :Chapter 21
01:31:19.891 : :Chapter 22
01:35:35.604 : :Chapter 23
01:43:01.049 : :Chapter 24
01:54:49.299 : :Chapter 25
01:59:51.934 : :Chapter 26

Death.On.The.Nile.2022.1080p.bdrip.x265-BvS

General
Unique ID : 217031073854468318348404076807326573338 (0xA346AA161C5C7E1E9D0FE9E3BD5CA31A)
Complete name : F:\mega\Death.On.The.Nile.2022.1080p.bdrip.x265-BvS.mkv
Format : Matroska
Format version : Version 4
File size : 1.19 GiB
Duration : 2 h 6 min
Overall bit rate : 1 339 kb/s
Movie name : BvSRips
Encoded date : UTC 2022-03-31 14:07:17
Writing application : mkvmerge v63.0.0 (‘Everything’) 64-bit
Writing library : libebml v1.4.2 + libmatroska v1.6.4

Video
ID : 1
Format : HEVC
Format/Info : High Efficiency Video Coding
Format profile : [email protected]@High
Codec ID : V_MPEGH/ISO/HEVC
Duration : 2 h 6 min
Bit rate : 1 082 kb/s
Width : 1 920 pixels
Height : 804 pixels
Display aspect ratio : 2.40:1
Frame rate mode : Constant
Frame rate : 23.976 (24000/1001) FPS
Color space : YUV
Chroma subsampling : 4:2:0
Bit depth : 8 bits
Bits/(Pixel*Frame) : 0.029
Stream size : 982 MiB (81%)
Writing library : x265 3.5+1-f0c1022b6:[Windows][GCC 10.2.0][64 bit] 8bit+10bit+12bit
Encoding settings : cpuid=1111039 / frame-threads=4 / numa-pools=16 / wpp / no-pmode / no-pme / psnr / no-ssim / log-level=2 / input-csp=1 / input-res=1920×804 / interlace=0 / total-frames=0 / level-idc=41 / high-tier=1 / uhd-bd=0 / ref=3 / no-allow-non-conformance / no-repeat-headers / annexb / no-aud / no-hrd / info / hash=0 / no-temporal-layers / open-gop / min-keyint=24 / keyint=240 / gop-lookahead=0 / bframes=4 / b-adapt=0 / b-pyramid / bframe-bias=0 / rc-lookahead=15 / lookahead-slices=5 / scenecut=40 / hist-scenecut=0 / radl=0 / no-splice / no-intra-refresh / ctu=64 / min-cu-size=8 / no-rect / no-amp / max-tu-size=32 / tu-inter-depth=1 / tu-intra-depth=1 / limit-tu=0 / rdoq-level=0 / dynamic-rd=0.00 / no-ssim-rd / signhide / no-tskip / nr-intra=0 / nr-inter=0 / no-constrained-intra / strong-intra-smoothing / max-merge=2 / limit-refs=3 / no-limit-modes / me=1 / subme=2 / merange=57 / temporal-mvp / no-frame-dup / no-hme / weightp / no-weightb / no-analyze-src-pics / deblock=0:0 / sao / no-sao-non-deblock / rd=2 / selective-sao=4 / no-early-skip / rskip / fast-intra / no-tskip-fast / no-cu-lossless / no-b-intra / no-splitrd-skip / rdpenalty=0 / psy-rd=0.00 / psy-rdoq=0.00 / no-rd-refine / no-lossless / cbqpoffs=0 / crqpoffs=0 / rc=crf / crf=22.0 / qcomp=0.60 / qpstep=4 / stats-write=0 / stats-read=0 / vbv-maxrate=50000 / vbv-bufsize=50000 / vbv-init=0.9 / min-vbv-fullness=50.0 / max-vbv-fullness=80.0 / crf-max=0.0 / crf-min=0.0 / ipratio=1.40 / pbratio=1.30 / aq-mode=2 / aq-strength=0.00 / cutree / zone-count=0 / no-strict-cbr / qg-size=32 / no-rc-grain / qpmax=69 / qpmin=0 / no-const-vbv / sar=1 / overscan=0 / videoformat=5 / range=0 / colorprim=1 / transfer=1 / colormatrix=1 / chromaloc=0 / display-window=0 / cll=0,0 / min-luma=0 / max-luma=255 / log2-max-poc-lsb=8 / vui-timing-info / vui-hrd-info / slices=1 / no-opt-qp-pps / no-opt-ref-list-length-pps / no-multi-pass-opt-rps / scenecut-bias=0.05 / hist-threshold=0.03 / no-opt-cu-delta-qp / no-aq-motion / no-hdr10 / no-hdr10-opt / no-dhdr10-opt / no-idr-recovery-sei / analysis-reuse-level=0 / analysis-save-reuse-level=0 / analysis-load-reuse-level=0 / scale-factor=0 / refine-intra=0 / refine-inter=0 / refine-mv=1 / refine-ctu-distortion=0 / no-limit-sao / ctu-info=0 / no-lowpass-dct / refine-analysis-type=0 / copy-pic=1 / max-ausize-factor=1.0 / no-dynamic-refine / no-single-sei / no-hevc-aq / no-svt / no-field / qp-adaptation-range=1.00 / scenecut-aware-qp=0conformance-window-offsets / right=0 / bottom=0 / decoder-max-rate=0 / no-vbv-live-multi-pass
Default : Yes
Forced : No
Color range : Limited
Color primaries : BT.709
Transfer characteristics : BT.709
Matrix coefficients : BT.709

Audio
ID : 2
Format : AAC LC SBR
Format/Info : Advanced Audio Codec Low Complexity with Spectral Band Replication
Commercial name : HE-AAC
Format settings : NBC
Codec ID : A_AAC-5
Duration : 2 h 6 min
Bit rate : 256 kb/s
Channel(s) : 6 channels
Channel layout : C L R Ls Rs LFE
Sampling rate : 48.0 kHz
Frame rate : 23.438 FPS (2048 SPF)
Compression mode : Lossy
Delay relative to video : -105 ms
Stream size : 232 MiB (19%)
Language : English
Default : Yes
Forced : No

Text
ID : 3
Format : ASS
Codec ID : S_TEXT/ASS
Codec ID/Info : Advanced Sub Station Alpha
Duration : 4 s 500 ms
Bit rate : 149 b/s
Count of elements : 1
Compression mode : Lossless
Stream size : 84.0 Bytes (0%)
Default : Yes
Forced : Yes

Menu
00:00:00.000 : en:Chapter 1
00:07:16.478 : en:Chapter 2
00:16:02.128 : en:Chapter 3
00:18:50.129 : en:Chapter 4
00:19:45.810 : en:Chapter 5
00:26:59.368 : en:Chapter 6
00:29:32.312 : en:Chapter 7
00:32:49.468 : en:Chapter 8
00:37:23.158 : en:Chapter 9
00:39:09.722 : en:Chapter 10
00:44:45.725 : en:Chapter 11
00:48:15.601 : en:Chapter 12
00:53:57.359 : en:Chapter 13
00:58:44.146 : en:Chapter 14
01:03:52.037 : en:Chapter 15
01:09:07.060 : en:Chapter 16
01:12:42.149 : en:Chapter 17
01:15:27.690 : en:Chapter 18
01:17:52.251 : en:Chapter 19
01:23:37.054 : en:Chapter 20
01:27:42.758 : en:Chapter 21
01:31:19.933 : en:Chapter 22
01:35:35.605 : en:Chapter 23
01:43:01.175 : en:Chapter 24
01:54:49.383 : en:Chapter 25
01:59:52.018 : en:Chapter 26

 

(He/Him) He's BvSRips. I dedicate myself to sharing files on this blog for free. But it is difficult to maintain the links online for a long time, they are denounced and deleted, reuploading costs more work, that is why a section for VIP users was created, where they can download all the files published 100% in MEGA, as premium, without spend more. I would greatly appreciate your collaboration so that this blog remains online for a longer time.

BUY VIP HERE

Leave a Reply

Your email address will not be published. Required fields are marked *