Children of the Damned (1964) | 720p & 1080p & 2160p BluRay x265-BvS

Children of the Damned (1964)

Six children are identified by a team of UNESCO researchers investigating child development. The children have extraordinary powers of intellect and are all able to complete a difficult brick puzzle in exactly the same amount of time.

Links: IMDB Trailer

Note: In English with English Selectable Subtitles

DOWNLOAD

VIP

This content is reserved for registered users. Sign up here o login to be able to see it. Buy your VIP membership

FREE

  • Children of the Damned (1964) (1080p BluRay x265 10bit Tigole) – 4.01GB (ONLY VIP)

NFO

Children of the Damned (1964) (1080p BluRay x265 10bit Tigole)

General
Unique ID : 286258220940537078403759386928756272858 (0xD75B53F4C50D64FB7AF518DB57C3AEDA)
Complete name : Children of the Damned (1964) (1080p BluRay x265 10bit Tigole).mkv
Format : Matroska
Format version : Version 4
File size : 4.01 GiB
Duration : 1 h 29 min
Overall bit rate : 6 427 kb/s
Movie name : Children of the Damned (1963)
Encoded date : UTC 2021-12-01 23:11:35
Writing application : mkvmerge v55.0.0 (‘Waiting For Space’) 64-bit
Writing library : libebml v1.4.2 + libmatroska v1.6.4

Video
ID : 1
Format : HEVC
Format/Info : High Efficiency Video Coding
Format profile : Main [email protected]@Main
Codec ID : V_MPEGH/ISO/HEVC
Duration : 1 h 29 min
Bit rate : 6 251 kb/s
Width : 1 920 pixels
Height : 1 040 pixels
Display aspect ratio : 1.85:1
Frame rate mode : Constant
Frame rate : 23.976 (24000/1001) FPS
Color space : YUV
Chroma subsampling : 4:2:0
Bit depth : 10 bits
Bits/(Pixel*Frame) : 0.131
Stream size : 3.90 GiB (97%)
Writing library : x265M – 3.4+35-772bb4c84:[Windows][GCC 10.2.0][64 bit] 10bit
Encoding settings : cpuid=1111039 / frame-threads=3 / numa-pools=8 / wpp / no-pmode / no-pme / no-psnr / no-ssim / log-level=2 / input-csp=1 / input-res=1920×1040 / interlace=0 / total-frames=128593 / level-idc=0 / high-tier=1 / uhd-bd=0 / ref=4 / no-allow-non-conformance / no-repeat-headers / annexb / no-aud / no-hrd / info / hash=0 / no-temporal-layers / open-gop / min-keyint=23 / keyint=250 / gop-lookahead=0 / bframes=4 / b-adapt=2 / b-pyramid / bframe-bias=0 / rc-lookahead=25 / lookahead-slices=4 / scenecut=40 / hist-scenecut=0 / radl=0 / no-splice / no-intra-refresh / ctu=64 / min-cu-size=8 / rect / no-amp / max-tu-size=32 / tu-inter-depth=1 / tu-intra-depth=1 / limit-tu=0 / rdoq-level=2 / dynamic-rd=0.00 / no-ssim-rd / signhide / no-tskip / nr-intra=0 / nr-inter=0 / no-constrained-intra / strong-intra-smoothing / max-merge=3 / limit-refs=3 / limit-modes / me=3 / subme=3 / merange=57 / temporal-mvp / no-frame-dup / no-hme / weightp / no-weightb / no-analyze-src-pics / deblock=0:0 / no-sao / no-sao-non-deblock / rd=4 / selective-sao=0 / no-early-skip / rskip / no-fast-intra / no-tskip-fast / no-cu-lossless / no-b-intra / no-splitrd-skip / rdpenalty=0 / psy-rd=2.00 / psy-rdoq=1.00 / no-rd-refine / no-lossless / cbqpoffs=0 / crqpoffs=0 / rc=abr / bitrate=6250 / qcomp=0.60 / qpstep=4 / stats-write=0 / stats-read=2 / cplxblur=20.0 / qblur=0.5 / ipratio=1.40 / pbratio=1.30 / aq-mode=3 / aq-strength=1.00 / cutree / zone-count=0 / no-strict-cbr / qg-size=32 / no-rc-grain / qpmax=69 / qpmin=0 / no-const-vbv / sar=0 / overscan=0 / videoformat=5 / range=0 / colorprim=2 / transfer=2 / colormatrix=2 / chromaloc=0 / display-window=0 / cll=0,0 / min-luma=0 / max-luma=1023 / log2-max-poc-lsb=8 / vui-timing-info / vui-hrd-info / slices=1 / no-opt-qp-pps / no-opt-ref-list-length-pps / multi-pass-opt-rps / scenecut-bias=0.05 / hist-threshold=0.03 / no-opt-cu-delta-qp / aq-motion / no-hdr10 / no-hdr10-opt / no-dhdr10-opt / no-idr-recovery-sei / analysis-reuse-level=0 / analysis-save-reuse-level=0 / analysis-load-reuse-level=0 / scale-factor=0 / refine-intra=0 / refine-inter=0 / refine-mv=1 / refine-ctu-distortion=0 / no-limit-sao / ctu-info=0 / no-lowpass-dct / refine-analysis-type=0 / copy-pic=1 / max-ausize-factor=1.0 / no-dynamic-refine / no-single-sei / no-hevc-aq / no-svt / no-field / qp-adaptation-range=1.00 / scenecut-aware-qp=0conformance-window-offsets / right=0 / bottom=0 / decoder-max-rate=0 / no-vbv-live-multi-pass
Default : Yes
Forced : No

Audio #1
ID : 2
Format : AAC LC
Format/Info : Advanced Audio Codec Low Complexity
Codec ID : A_AAC-2
Duration : 1 h 29 min
Bit rate : 103 kb/s
Channel(s) : 2 channels
Channel layout : L R
Sampling rate : 48.0 kHz
Frame rate : 46.875 FPS (1024 SPF)
Compression mode : Lossy
Delay relative to video : 20 ms
Stream size : 66.0 MiB (2%)
Language : English
Default : Yes
Forced : No

Audio #2
ID : 3
Format : AAC LC SBR
Format/Info : Advanced Audio Codec Low Complexity with Spectral Band Replication
Commercial name : HE-AAC
Format settings : Explicit
Codec ID : A_AAC-2
Duration : 1 h 29 min
Bit rate : 66.2 kb/s
Channel(s) : 2 channels
Channel layout : L R
Sampling rate : 48.0 kHz
Frame rate : 23.438 FPS (2048 SPF)
Compression mode : Lossy
Delay relative to video : 40 ms
Stream size : 42.0 MiB (1%)
Title : Commentary
Language : English
Default : No
Forced : No

Text
ID : 4
Format : VobSub
Muxing mode : zlib
Codec ID : S_VOBSUB
Codec ID/Info : Picture based subtitle format used on DVDs
Duration : 1 h 28 min
Bit rate : 8 305 b/s
Count of elements : 1163
Stream size : 5.27 MiB (0%)
Language : English
Default : No
Forced : No

Menu
00:00:00.000 : en:Chapter 01
00:01:38.014 : en:Chapter 02
00:05:52.060 : en:Chapter 03
00:08:48.361 : en:Chapter 04
00:12:48.601 : en:Chapter 05
00:16:00.960 : en:Chapter 06
00:20:04.369 : en:Chapter 07
00:25:23.355 : en:Chapter 08
00:29:58.296 : en:Chapter 09
00:33:14.200 : en:Chapter 10
00:38:46.699 : en:Chapter 11
00:44:03.390 : en:Chapter 12
00:47:27.803 : en:Chapter 13
00:50:53.133 : en:Chapter 14
00:54:19.798 : en:Chapter 15
01:00:08.479 : en:Chapter 16
01:06:05.044 : en:Chapter 17
01:11:13.269 : en:Chapter 18
01:12:58.123 : en:Chapter 19
01:15:59.805 : en:Chapter 20
01:21:20.041 : en:Chapter 21
01:23:30.338 : en:Chapter 22
01:26:32.145 : en:Chapter 23
01:29:05.631 : en:Chapter 24
01:29:22.565 : en:Chapter 25

Leave a Reply

Your email address will not be published. Required fields are marked *