Blade (1998) | 720p & 1080p & 2160p BluRay x265-BvS

Blade (1998)

In a world where vampires walk the earth, Blade has a goal. His goal is to rid the world of all vampire evil. When Blade witnesses a vampire bite Dr. Karen Jenson, he fights away the beast and takes Jenson back to his hideout. Here, alongside Abraham Whistler, Blade attempts to help heal Jenson. The vampire Quinn who was attacked by Blade, reports back to his master Deacon Frost, who is planning a huge surprise for the human population.

Links: iMDB | Trailer

Note: In English with English/Spanish/French/German Selectable Subtitles

DOWNLOAD

VIP

This content is reserved for registered users. BUY A VIP MEMBERSHIP HERE and login to be able to see it.

FREE

  • Blade (1998) (2160p BluRay x265 HEVC 10bit HDR AAC 7.1 Tigole) – 12.70GB (ONLY VIP)
  • Blade.1998.UHD.BluRay.2160p.TrueHD.Atmos.7.1.HEVC.REMUX-FraMeSToR – 49.60GB (ONLY VIP)

NFO

2160p BluRay x265 HEVC 10bit HDR AAC 7.1 Tigole

General
Unique ID : 77549611081722745051854869677802084104 (0x3A5783065C047BBE233DA9DEC5315708)
Complete name : Blade (1998) (2160p BluRay x265 10bit HDR Tigole).mkv
Format : Matroska
Format version : Version 4
File size : 12.7 GiB
Duration : 2 h 0 min
Overall bit rate : 15.2 Mb/s
Movie name : Blade
Encoded date : UTC 2021-07-05 17:03:39
Writing application : mkvmerge v55.0.0 (‘Waiting For Space’) 64-bit
Writing library : libebml v1.4.2 + libmatroska v1.6.4

Video
ID : 1
Format : HEVC
Format/Info : High Efficiency Video Coding
Format profile : Main [email protected]@Main
HDR format : SMPTE ST 2086, HDR10 compatible
Codec ID : V_MPEGH/ISO/HEVC
Duration : 2 h 0 min
Bit rate : 14.0 Mb/s
Width : 3 840 pixels
Height : 1 608 pixels
Display aspect ratio : 2.40:1
Frame rate mode : Constant
Frame rate : 23.976 (24000/1001) FPS
Color space : YUV
Chroma subsampling : 4:2:0
Bit depth : 10 bits
Bits/(Pixel*Frame) : 0.094
Stream size : 11.8 GiB (92%)
Writing library : x265M – 3.4+35-772bb4c84:[Windows][GCC 10.2.0][64 bit] 10bit
Encoding settings : cpuid=1111039 / frame-threads=3 / numa-pools=8 / wpp / no-pmode / no-pme / no-psnr / no-ssim / log-level=2 / input-csp=1 / input-res=3840×1608 / interlace=0 / total-frames=172991 / level-idc=0 / high-tier=1 / uhd-bd=0 / ref=4 / no-allow-non-conformance / repeat-headers / annexb / aud / no-hrd / info / hash=0 / no-temporal-layers / open-gop / min-keyint=23 / keyint=250 / gop-lookahead=0 / bframes=4 / b-adapt=2 / b-pyramid / bframe-bias=0 / rc-lookahead=25 / lookahead-slices=4 / scenecut=40 / hist-scenecut=0 / radl=0 / no-splice / no-intra-refresh / ctu=64 / min-cu-size=8 / rect / no-amp / max-tu-size=32 / tu-inter-depth=1 / tu-intra-depth=1 / limit-tu=0 / rdoq-level=2 / dynamic-rd=0.00 / no-ssim-rd / signhide / no-tskip / nr-intra=0 / nr-inter=0 / no-constrained-intra / strong-intra-smoothing / max-merge=3 / limit-refs=3 / limit-modes / me=3 / subme=3 / merange=57 / temporal-mvp / no-frame-dup / no-hme / weightp / no-weightb / no-analyze-src-pics / deblock=0:0 / no-sao / no-sao-non-deblock / rd=4 / selective-sao=0 / no-early-skip / rskip / no-fast-intra / no-tskip-fast / no-cu-lossless / no-b-intra / no-splitrd-skip / rdpenalty=0 / psy-rd=2.00 / psy-rdoq=1.00 / no-rd-refine / no-lossless / cbqpoffs=0 / crqpoffs=0 / rc=abr / bitrate=14000 / qcomp=0.60 / qpstep=4 / stats-write=0 / stats-read=2 / cplxblur=20.0 / qblur=0.5 / ipratio=1.40 / pbratio=1.30 / aq-mode=2 / aq-strength=1.00 / cutree / zone-count=0 / no-strict-cbr / qg-size=32 / no-rc-grain / qpmax=69 / qpmin=0 / no-const-vbv / sar=0 / overscan=0 / videoformat=5 / range=0 / colorprim=9 / transfer=16 / colormatrix=9 / chromaloc=0 / display-window=0 / master-display=G(13250,34500)B(7500,3000)R(34000,16000)WP(15635,16450)L(10000000,1) / cll=996,329 / min-luma=0 / max-luma=1023 / log2-max-poc-lsb=8 / vui-timing-info / vui-hrd-info / slices=1 / no-opt-qp-pps / no-opt-ref-list-length-pps / no-multi-pass-opt-rps / scenecut-bias=0.05 / hist-threshold=0.03 / no-opt-cu-delta-qp / aq-motion / hdr10 / hdr10-opt / no-dhdr10-opt / no-idr-recovery-sei / analysis-reuse-level=0 / analysis-save-reuse-level=0 / analysis-load-reuse-level=0 / scale-factor=0 / refine-intra=0 / refine-inter=0 / refine-mv=1 / refine-ctu-distortion=0 / no-limit-sao / ctu-info=0 / no-lowpass-dct / refine-analysis-type=0 / copy-pic=1 / max-ausize-factor=1.0 / no-dynamic-refine / no-single-sei / no-hevc-aq / no-svt / no-field / qp-adaptation-range=1.00 / scenecut-aware-qp=0conformance-window-offsets / right=0 / bottom=0 / decoder-max-rate=0 / no-vbv-live-multi-pass
Default : Yes
Forced : No
Color range : Limited
Color primaries : BT.2020
Transfer characteristics : PQ
Matrix coefficients : BT.2020 non-constant
Mastering display color primaries : Display P3
Mastering display luminance : min: 0.0001 cd/m2, max: 1000 cd/m2
Maximum Content Light Level : 996 cd/m2
Maximum Frame-Average Light Level : 329 cd/m2

Audio #1
ID : 2
Format : AAC LC
Format/Info : Advanced Audio Codec Low Complexity
Codec ID : A_AAC-2
Duration : 2 h 0 min
Bit rate : 948 kb/s
Channel(s) : 8 channels
Channel layout : C L R Ls Rs Lb Rb LFE
Sampling rate : 48.0 kHz
Frame rate : 46.875 FPS (1024 SPF)
Compression mode : Lossy
Delay relative to video : 20 ms
Stream size : 816 MiB (6%)
Language : English
Default : Yes
Forced : No

Audio #2
ID : 3
Format : AAC LC SBR
Format/Info : Advanced Audio Codec Low Complexity with Spectral Band Replication
Commercial name : HE-AAC
Format settings : Explicit
Codec ID : A_AAC-2
Duration : 2 h 0 min
Bit rate : 66.2 kb/s
Channel(s) : 2 channels
Channel layout : L R
Sampling rate : 48.0 kHz
Frame rate : 23.438 FPS (2048 SPF)
Compression mode : Lossy
Delay relative to video : 40 ms
Stream size : 56.6 MiB (0%)
Title : Commentary
Language : English
Default : No
Forced : No

Audio #3
ID : 4
Format : AAC LC
Format/Info : Advanced Audio Codec Low Complexity
Codec ID : A_AAC-2
Duration : 2 h 0 min
Bit rate : 132 kb/s
Channel(s) : 2 channels
Channel layout : L R
Sampling rate : 48.0 kHz
Frame rate : 46.875 FPS (1024 SPF)
Compression mode : Lossy
Delay relative to video : 20 ms
Stream size : 116 MiB (1%)
Title : Isolated Score Commentary
Language : English
Default : No
Forced : No

Text #1
ID : 5
Format : VobSub
Muxing mode : zlib
Codec ID : S_VOBSUB
Codec ID/Info : Picture based subtitle format used on DVDs
Duration : 1 h 53 min
Bit rate : 6 740 b/s
Count of elements : 974
Stream size : 5.50 MiB (0%)
Language : English
Default : No
Forced : No

Text #2
ID : 6
Format : VobSub
Muxing mode : zlib
Codec ID : S_VOBSUB
Codec ID/Info : Picture based subtitle format used on DVDs
Duration : 1 h 54 min
Bit rate : 4 731 b/s
Count of elements : 857
Stream size : 3.86 MiB (0%)
Language : Czech
Default : No
Forced : No

Text #3
ID : 7
Format : VobSub
Muxing mode : zlib
Codec ID : S_VOBSUB
Codec ID/Info : Picture based subtitle format used on DVDs
Duration : 1 h 59 min
Bit rate : 5 229 b/s
Count of elements : 905
Stream size : 4.46 MiB (0%)
Language : French
Default : No
Forced : No

Text #4
ID : 8
Format : VobSub
Muxing mode : zlib
Codec ID : S_VOBSUB
Codec ID/Info : Picture based subtitle format used on DVDs
Duration : 1 h 59 min
Bit rate : 7 401 b/s
Count of elements : 998
Stream size : 6.31 MiB (0%)
Language : German
Default : No
Forced : No

Text #5
ID : 9
Format : VobSub
Muxing mode : zlib
Codec ID : S_VOBSUB
Codec ID/Info : Picture based subtitle format used on DVDs
Duration : 1 h 59 min
Bit rate : 6 529 b/s
Count of elements : 1002
Stream size : 5.57 MiB (0%)
Language : Italian
Default : No
Forced : No

Text #6
ID : 10
Format : VobSub
Muxing mode : zlib
Codec ID : S_VOBSUB
Codec ID/Info : Picture based subtitle format used on DVDs
Duration : 1 h 54 min
Bit rate : 5 102 b/s
Count of elements : 897
Stream size : 4.16 MiB (0%)
Language : Polish
Default : No
Forced : No

Text #7
ID : 11
Format : VobSub
Muxing mode : zlib
Codec ID : S_VOBSUB
Codec ID/Info : Picture based subtitle format used on DVDs
Duration : 1 h 54 min
Bit rate : 5 614 b/s
Count of elements : 998
Stream size : 4.59 MiB (0%)
Language : Spanish
Default : No
Forced : No

Menu
00:00:00.000 : en:Chapter 01
00:02:03.790 : en:Chapter 02
00:03:05.852 : en:Chapter 03
00:06:49.075 : en:Chapter 04
00:09:49.130 : en:Chapter 05
00:11:00.242 : en:Chapter 06
00:13:46.826 : en:Chapter 07
00:16:57.433 : en:Chapter 08
00:19:32.963 : en:Chapter 09
00:22:49.785 : en:Chapter 10
00:23:44.423 : en:Chapter 11
00:27:27.312 : en:Chapter 12
00:31:04.028 : en:Chapter 13
00:33:02.438 : en:Chapter 14
00:35:01.224 : en:Chapter 15
00:39:19.607 : en:Chapter 16
00:41:46.879 : en:Chapter 17
00:44:31.251 : en:Chapter 18
00:47:34.768 : en:Chapter 19
00:50:10.507 : en:Chapter 20
00:54:00.987 : en:Chapter 21
00:57:09.634 : en:Chapter 22
00:58:08.151 : en:Chapter 23
01:01:32.605 : en:Chapter 24
01:05:21.250 : en:Chapter 25
01:08:59.176 : en:Chapter 26
01:12:45.277 : en:Chapter 27
01:14:50.402 : en:Chapter 28
01:19:15.083 : en:Chapter 29
01:22:38.620 : en:Chapter 30
01:24:59.969 : en:Chapter 31
01:27:56.229 : en:Chapter 32
01:31:32.570 : en:Chapter 33
01:34:34.293 : en:Chapter 34
01:37:00.064 : en:Chapter 35
01:40:32.985 : en:Chapter 36
01:54:02.836 : en:Chapter 37
01:55:13.114 : en:Chapter 38

Blade.1998.UHD.BluRay.2160p.TrueHD.Atmos.7.1.HEVC.REMUX-FraMeSToR

General
Unique ID : 145723199144563913386583994869244777672 (0x6DA1446C9F4337627315F50FFC6454C8)
Complete name : Blade.1998.UHD.BluRay.2160p.TrueHD.Atmos.7.1.HEVC.REMUX-FraMeSToR.mkv
Format : Matroska
Format version : Version 4
File size : 49.6 GiB
Duration : 2 h 0 min
Overall bit rate mode : Variable
Overall bit rate : 59.1 Mb/s
Movie name : Blade 4K
Encoded date : UTC 2020-12-03 02:56:13
Writing application : mkvmerge v51.0.0 (‘I Wish’) 64-bit
Writing library : libebml v1.4.0 + libmatroska v1.6.2
IMDB : tt0120611
TMDB : movie/36647

Video
ID : 1
Format : HEVC
Format/Info : High Efficiency Video Coding
Format profile : Main [email protected]@High
HDR format : SMPTE ST 2086, HDR10 compatible
Codec ID : V_MPEGH/ISO/HEVC
Duration : 2 h 0 min
Bit rate : 54.3 Mb/s
Width : 3 840 pixels
Height : 2 160 pixels
Display aspect ratio : 16:9
Frame rate mode : Constant
Frame rate : 23.976 (24000/1001) FPS
Color space : YUV
Chroma subsampling : 4:2:0 (Type 2)
Bit depth : 10 bits
Bits/(Pixel*Frame) : 0.273
Stream size : 45.6 GiB (92%)
Writing library : ATEME Titan File 3.9.6 (4.9.6.2)
Default : Yes
Forced : No
Color range : Limited
Color primaries : BT.2020
Transfer characteristics : PQ
Matrix coefficients : BT.2020 non-constant
Mastering display color primaries : Display P3
Mastering display luminance : min: 0.0001 cd/m2, max: 1000 cd/m2
Maximum Content Light Level : 996 cd/m2
Maximum Frame-Average Light Level : 329 cd/m2

Audio #1
ID : 2
Format : MLP FBA 16-ch
Format/Info : Meridian Lossless Packing FBA with 16-channel presentation
Commercial name : Dolby TrueHD with Dolby Atmos
Codec ID : A_TRUEHD
Duration : 2 h 0 min
Bit rate mode : Variable
Bit rate : 3 575 kb/s
Maximum bit rate : 6 582 kb/s
Channel(s) : 8 channels
Channel layout : L R C LFE Ls Rs Lb Rb
Sampling rate : 48.0 kHz
Frame rate : 1 200.000 FPS (40 SPF)
Compression mode : Lossless
Stream size : 3.00 GiB (6%)
Title : TrueHD Atmos 7.1
Language : English
Default : Yes
Forced : No
Number of dynamic objects : 11
Bed channel count : 1 channel
Bed channel configuration : LFE

Audio #2
ID : 3
Format : AC-3
Format/Info : Audio Coding 3
Commercial name : Dolby Digital
Codec ID : A_AC3
Duration : 2 h 0 min
Bit rate mode : Constant
Bit rate : 448 kb/s
Channel(s) : 6 channels
Channel layout : L R C LFE Ls Rs
Sampling rate : 48.0 kHz
Frame rate : 31.250 FPS (1536 SPF)
Compression mode : Lossy
Stream size : 385 MiB (1%)
Title : AC-3 5.1-EX
Language : English
Service kind : Complete Main
Default : No
Forced : No

Audio #3
ID : 4
Format : AC-3
Format/Info : Audio Coding 3
Commercial name : Dolby Digital
Codec ID : A_AC3
Duration : 2 h 0 min
Bit rate mode : Constant
Bit rate : 192 kb/s
Channel(s) : 2 channels
Channel layout : L R
Sampling rate : 48.0 kHz
Frame rate : 31.250 FPS (1536 SPF)
Compression mode : Lossy
Stream size : 165 MiB (0%)
Title : Commentary by Wesley Snipes/Stephen Dorff/David Goyer/Theo Van De Sande/Kirk M. Petruccelli/Peter Frankfurt
Language : English
Service kind : Complete Main
Default : No
Forced : No

Audio #4
ID : 5
Format : AC-3
Format/Info : Audio Coding 3
Commercial name : Dolby Digital
Codec ID : A_AC3
Duration : 2 h 0 min
Bit rate mode : Constant
Bit rate : 192 kb/s
Channel(s) : 2 channels
Channel layout : L R
Sampling rate : 48.0 kHz
Frame rate : 31.250 FPS (1536 SPF)
Compression mode : Lossy
Stream size : 165 MiB (0%)
Title : Isolated Score/Commentary by Mark Isham
Language : English
Service kind : Complete Main
Default : No
Forced : No

Text #1
ID : 6
Format : PGS
Codec ID : S_HDMV/PGS
Codec ID/Info : Picture based subtitle format used on BDs/HD-DVDs
Duration : 1 h 53 min
Bit rate : 21.8 kb/s
Count of elements : 1948
Stream size : 17.8 MiB (0%)
Title : English (SDH)
Language : English
Default : No
Forced : No

Text #2
ID : 7
Format : PGS
Codec ID : S_HDMV/PGS
Codec ID/Info : Picture based subtitle format used on BDs/HD-DVDs
Duration : 1 h 54 min
Bit rate : 15.7 kb/s
Count of elements : 1714
Stream size : 12.8 MiB (0%)
Title : Czech
Language : Czech
Default : No
Forced : No

Text #3
ID : 8
Format : PGS
Codec ID : S_HDMV/PGS
Codec ID/Info : Picture based subtitle format used on BDs/HD-DVDs
Duration : 1 h 59 min
Bit rate : 17.6 kb/s
Count of elements : 1828
Stream size : 15.0 MiB (0%)
Title : Dutch
Language : Dutch
Default : No
Forced : No

Text #4
ID : 9
Format : PGS
Codec ID : S_HDMV/PGS
Codec ID/Info : Picture based subtitle format used on BDs/HD-DVDs
Duration : 1 h 59 min
Bit rate : 17.3 kb/s
Count of elements : 1810
Stream size : 14.7 MiB (0%)
Title : French
Language : French
Default : No
Forced : No

Text #5
ID : 10
Format : PGS
Codec ID : S_HDMV/PGS
Codec ID/Info : Picture based subtitle format used on BDs/HD-DVDs
Duration : 1 h 59 min
Bit rate : 23.8 kb/s
Count of elements : 1996
Stream size : 20.3 MiB (0%)
Title : German (SDH)
Language : German
Default : No
Forced : No

Text #6
ID : 11
Format : PGS
Codec ID : S_HDMV/PGS
Codec ID/Info : Picture based subtitle format used on BDs/HD-DVDs
Duration : 1 h 59 min
Bit rate : 21.3 kb/s
Count of elements : 2004
Stream size : 18.2 MiB (0%)
Title : Italian (SDH)
Language : Italian
Default : No
Forced : No

Text #7
ID : 12
Format : PGS
Codec ID : S_HDMV/PGS
Codec ID/Info : Picture based subtitle format used on BDs/HD-DVDs
Duration : 1 h 54 min
Bit rate : 15.1 kb/s
Count of elements : 1830
Stream size : 12.3 MiB (0%)
Title : Japanese
Language : Japanese
Default : No
Forced : No

Text #8
ID : 13
Format : PGS
Codec ID : S_HDMV/PGS
Codec ID/Info : Picture based subtitle format used on BDs/HD-DVDs
Duration : 1 h 54 min
Bit rate : 16.9 kb/s
Count of elements : 1794
Stream size : 13.8 MiB (0%)
Title : Polish
Language : Polish
Default : No
Forced : No

Text #9
ID : 14
Format : PGS
Codec ID : S_HDMV/PGS
Codec ID/Info : Picture based subtitle format used on BDs/HD-DVDs
Duration : 1 h 59 min
Bit rate : 19.2 kb/s
Count of elements : 1842
Stream size : 16.4 MiB (0%)
Title : Portuguese (Brazilian)
Language : Portuguese
Default : No
Forced : No

Text #10
ID : 15
Format : PGS
Codec ID : S_HDMV/PGS
Codec ID/Info : Picture based subtitle format used on BDs/HD-DVDs
Duration : 1 h 59 min
Bit rate : 15.8 kb/s
Count of elements : 1846
Stream size : 13.5 MiB (0%)
Title : Russian
Language : Russian
Default : No
Forced : No

Text #11
ID : 16
Format : PGS
Codec ID : S_HDMV/PGS
Codec ID/Info : Picture based subtitle format used on BDs/HD-DVDs
Duration : 1 h 59 min
Bit rate : 18.5 kb/s
Count of elements : 1842
Stream size : 15.8 MiB (0%)
Title : Spanish (Castilian)
Language : Spanish
Default : No
Forced : No

Text #12
ID : 17
Format : PGS
Codec ID : S_HDMV/PGS
Codec ID/Info : Picture based subtitle format used on BDs/HD-DVDs
Duration : 1 h 54 min
Bit rate : 18.8 kb/s
Count of elements : 1996
Stream size : 15.4 MiB (0%)
Title : Spanish (Latin American)
Language : Spanish
Default : No
Forced : No

Text #13
ID : 18
Format : PGS
Codec ID : S_HDMV/PGS
Codec ID/Info : Picture based subtitle format used on BDs/HD-DVDs
Duration : 1 h 59 min
Bit rate : 41.8 kb/s
Count of elements : 3490
Stream size : 35.9 MiB (0%)
Title : Japanese (Commentary #1)
Language : Japanese
Default : No
Forced : No

Text #14
ID : 19
Format : PGS
Codec ID : S_HDMV/PGS
Codec ID/Info : Picture based subtitle format used on BDs/HD-DVDs
Duration : 1 h 58 min
Bit rate : 23.8 kb/s
Count of elements : 1856
Stream size : 20.1 MiB (0%)
Title : Japanese (Commentary #2)
Language : Japanese
Default : No
Forced : No

Menu
00:00:00.000 : en:Opening – Birth Of Blade
00:02:03.999 : en:Blind Date
00:03:05.852 : en:Club Blood
00:06:49.159 : en:The Daywalker
00:09:49.130 : en:”Put Him Out”
00:11:00.243 : en:The Mighty Quinn
00:13:46.826 : en:Saving Karen
00:16:57.683 : en:Blade’s Lair
00:19:32.963 : en:The House Of Erebus
00:22:50.077 : en:The Herbalist
00:23:44.423 : en:The Injection
00:27:27.688 : en:Rules Of Encounter
00:31:04.029 : en:In The Archives
00:33:02.439 : en:The Glyphs
00:35:01.224 : en:Cops And Robbers
00:39:19.607 : en:Waiting For Prey
00:41:46.879 : en:Schoolgirl Rap
00:44:31.252 : en:Rooftop Party
00:47:34.769 : en:Pearl Before Swine
00:50:10.591 : en:Pages From The Book
00:54:00.988 : en:Company Calls
00:57:09.718 : en:”I’m Something Else.”
00:58:08.151 : en:The Story Of Blade
01:01:32.689 : en:First Dawn And Last
01:05:21.251 : en:Secrets Of The Blood
01:08:59.177 : en:SPF 36
01:12:45.278 : en:The Raid
01:14:50.403 : en:”You’re The Chosen One.”
01:19:15.084 : en:Cutting Off Roots
01:22:38.620 : en:The Gate Crasher
01:25:00.012 : en:A Mother’s Love
01:27:56.605 : en:The Temple Of The Night
01:31:32.570 : en:Everyone To Their Places
01:34:34.502 : en:The Sarcophagus Of The Daywalker
01:37:00.064 : en:The Ceremony
01:40:33.069 : en:Frost vs The Daywalker
01:54:02.836 : en:Moscow Nights
01:55:13.115 : en:End Titles

Leave a Reply

Your email address will not be published. Required fields are marked *