Black Widow (2021) | 720p & 1080p & 2160p BluRay x265-BvS

Natasha Romanoff aka Black Widow confronts the darker parts of her ledger when a dangerous conspiracy with ties to her past arises. Pursued by a force that will stop at nothing to bring her down, Natasha must deal with her history as a spy and the broken relationships left in her wake long before she became an Avenger.

Links: iMDB | Trailer

Note: In English with English/French/Spanish/German Selectable Subtitles

DOWNLOAD

VIP

This content is reserved for registered users. Sign up here o login to be able to see it.

FREE

NFO

WEBRip.x264-ION10

General
Complete name : Black.Widow.2021.WEBRip.x264-ION10.mp4
Format : MPEG-4
Format profile : Base Media
Codec ID : isom (isom/iso2/avc1/mp41)
File size : 1.27 GiB
Duration : 2 h 13 min
Overall bit rate : 1 361 kb/s
Movie name : RARBG – Black.Widow.2021.WEBRip.x264-ION10
Encoded date : UTC 2021-07-09 05:00:09
Tagged date : UTC 2021-07-09 05:00:09
Writing application : Lavf58.20.100
Comment : RARBG – Black.Widow.2021.WEBRip.x264-ION10

Video
ID : 1
Format : AVC
Format/Info : Advanced Video Codec
Format profile : [email protected]
Format settings : CABAC / 5 Ref Frames
Format settings, CABAC : Yes
Format settings, Reference frames : 5 frames
Codec ID : avc1
Codec ID/Info : Advanced Video Coding
Duration : 2 h 13 min
Bit rate : 1 100 kb/s
Width : 720 pixels
Height : 300 pixels
Display aspect ratio : 2.40:1
Frame rate mode : Constant
Frame rate : 23.976 (24000/1001) FPS
Color space : YUV
Chroma subsampling : 4:2:0
Bit depth : 8 bits
Scan type : Progressive
Bits/(Pixel*Frame) : 0.212
Stream size : 1.03 GiB (81%)
Title : RARBG – Black.Widow.2021.WEBRip.x264-ION10
Writing library : x264 core 152 r2851M ba24899
Encoding settings : cabac=1 / ref=5 / deblock=1:-1:-1 / analyse=0x3:0x113 / me=umh / subme=9 / psy=1 / psy_rd=1.00:0.15 / mixed_ref=1 / me_range=16 / chroma_me=1 / trellis=2 / 8x8dct=1 / cqm=0 / deadzone=21,11 / fast_pskip=1 / chroma_qp_offset=-3 / threads=16 / lookahead_threads=1 / sliced_threads=0 / nr=0 / decimate=1 / interlaced=0 / bluray_compat=0 / constrained_intra=0 / bframes=3 / b_pyramid=2 / b_adapt=2 / b_bias=0 / direct=3 / weightb=1 / open_gop=0 / weightp=2 / keyint=250 / keyint_min=23 / scenecut=40 / intra_refresh=0 / rc_lookahead=50 / rc=2pass / mbtree=1 / bitrate=1100 / ratetol=1.0 / qcomp=0.60 / qpmin=0 / qpmax=69 / qpstep=4 / cplxblur=20.0 / qblur=0.5 / ip_ratio=1.40 / aq=1:1.00
Encoded date : UTC 2021-07-09 05:00:09
Tagged date : UTC 2021-07-09 05:00:09
Codec configuration box : avcC

Audio
ID : 2
Format : AAC LC
Format/Info : Advanced Audio Codec Low Complexity
Codec ID : mp4a-40-2
Duration : 2 h 13 min
Duration_LastFrame : -11 ms
Bit rate mode : Constant
Bit rate : 256 kb/s
Channel(s) : 2 channels
Channel layout : L R
Sampling rate : 48.0 kHz
Frame rate : 46.875 FPS (1024 SPF)
Compression mode : Lossy
Stream size : 245 MiB (19%)
Title : RARBG – Black.Widow.2021.WEBRip.x264-ION10
Language : English
Default : Yes
Alternate group : 1
Encoded date : UTC 2021-07-09 05:00:09
Tagged date : UTC 2021-07-09 05:00:09

1080p.WEBRip.x265-BvS

General
Unique ID : 278123470280799356031458068916838007633 (0xD13CA1C8767566366B374BB259630351)
Complete name : D:\HDNLEN1102\Black.Widow.2021.1080p.dsnp.webrip.x265-BvS\Black.Widow.2021.1080p.dsnp.webrip.x265-BvS.mkv
Format : Matroska
Format version : Version 4
File size : 1.78 GiB
Duration : 2 h 13 min
Overall bit rate : 1 901 kb/s
Movie name : BvSRips
Encoded date : UTC 2021-07-09 14:17:12
Writing application : mkvmerge v51.0.0 (‘I Wish’) 64-bit
Writing library : libebml v1.4.0 + libmatroska v1.6.2

Video
ID : 1
Format : HEVC
Format/Info : High Efficiency Video Coding
Format profile : [email protected]@Main
Codec ID : V_MPEGH/ISO/HEVC
Duration : 2 h 13 min
Bit rate : 1 643 kb/s
Width : 1 920 pixels
Height : 1 080 pixels
Display aspect ratio : 16:9
Frame rate mode : Constant
Frame rate : 23.976 (24000/1001) FPS
Color space : YUV
Chroma subsampling : 4:2:0
Bit depth : 8 bits
Bits/(Pixel*Frame) : 0.033
Stream size : 1.54 GiB (86%)
Writing library : x265 3.2.1+1-b5c86a64bbbe:[Windows][GCC 9.2.0][64 bit] 8bit+10bit+12bit
Encoding settings : cpuid=1111039 / frame-threads=4 / numa-pools=16 / wpp / no-pmode / no-pme / psnr / no-ssim / log-level=2 / input-csp=1 / input-res=1920×1080 / interlace=0 / total-frames=0 / level-idc=0 / high-tier=1 / uhd-bd=0 / ref=2 / no-allow-non-conformance / no-repeat-headers / annexb / no-aud / no-hrd / info / hash=0 / no-temporal-layers / open-gop / min-keyint=24 / keyint=240 / gop-lookahead=0 / bframes=4 / b-adapt=0 / b-pyramid / bframe-bias=0 / rc-lookahead=15 / lookahead-slices=6 / scenecut=40 / radl=0 / no-splice / no-intra-refresh / ctu=64 / min-cu-size=8 / no-rect / no-amp / max-tu-size=32 / tu-inter-depth=1 / tu-intra-depth=1 / limit-tu=0 / rdoq-level=0 / dynamic-rd=0.00 / no-ssim-rd / signhide / no-tskip / nr-intra=0 / nr-inter=0 / no-constrained-intra / strong-intra-smoothing / max-merge=2 / limit-refs=3 / no-limit-modes / me=1 / subme=2 / merange=57 / temporal-mvp / no-hme / weightp / no-weightb / no-analyze-src-pics / deblock=0:0 / sao / no-sao-non-deblock / rd=2 / selective-sao=4 / early-skip / rskip / fast-intra / no-tskip-fast / no-cu-lossless / no-b-intra / no-splitrd-skip / rdpenalty=0 / psy-rd=0.00 / psy-rdoq=0.00 / no-rd-refine / no-lossless / cbqpoffs=0 / crqpoffs=0 / rc=crf / crf=22.0 / qcomp=0.60 / qpstep=4 / stats-write=0 / stats-read=0 / ipratio=1.40 / pbratio=1.30 / aq-mode=2 / aq-strength=0.00 / cutree / zone-count=0 / no-strict-cbr / qg-size=32 / no-rc-grain / qpmax=69 / qpmin=0 / no-const-vbv / sar=1 / overscan=0 / videoformat=5 / range=0 / colorprim=1 / transfer=1 / colormatrix=1 / chromaloc=0 / display-window=0 / cll=0,0 / min-luma=0 / max-luma=255 / log2-max-poc-lsb=8 / vui-timing-info / vui-hrd-info / slices=1 / no-opt-qp-pps / no-opt-ref-list-length-pps / no-multi-pass-opt-rps / scenecut-bias=0.05 / no-opt-cu-delta-qp / no-aq-motion / no-hdr / no-hdr-opt / no-dhdr10-opt / no-idr-recovery-sei / analysis-reuse-level=5 / scale-factor=0 / refine-intra=0 / refine-inter=0 / refine-mv=1 / refine-ctu-distortion=0 / no-limit-sao / ctu-info=0 / no-lowpass-dct / refine-analysis-type=0 / copy-pic=1 / max-ausize-factor=1.0 / no-dynamic-refine / no-single-sei / no-hevc-aq / no-svt / no-field / qp-adaptation-range=1.00
Default : Yes
Forced : No
Color range : Limited
Color primaries : BT.709
Transfer characteristics : BT.709
Matrix coefficients : BT.709

Audio
ID : 2
Format : AAC LC SBR
Format/Info : Advanced Audio Codec Low Complexity with Spectral Band Replication
Commercial name : HE-AAC
Format settings : NBC
Codec ID : A_AAC-5
Duration : 2 h 13 min
Bit rate : 256 kb/s
Channel(s) : 6 channels
Channel layout : C L R Ls Rs LFE
Sampling rate : 48.0 kHz
Frame rate : 23.438 FPS (2048 SPF)
Compression mode : Lossy
Delay relative to video : -105 ms
Stream size : 245 MiB (13%)
Language : English
Default : Yes
Forced : No

Text
ID : 3
Format : ASS
Codec ID : S_TEXT/ASS
Codec ID/Info : Advanced Sub Station Alpha
Duration : 4 s 500 ms
Bit rate : 149 b/s
Count of elements : 1
Compression mode : Lossless
Stream size : 84.0 Bytes (0%)
Default : Yes
Forced : No

1080p.WEBRip.x264-RARBG

General
Complete name : Black.Widow.2021.1080p.WEBRip.x264-RARBG.mp4
Format : MPEG-4
Format profile : Base Media
Codec ID : isom (isom/iso2/avc1/mp41)
File size : 2.55 GiB
Duration : 2 h 13 min
Overall bit rate : 2 729 kb/s
Movie name : Black.Widow.2021.1080p.WEBRip.x264-RARBG
Encoded date : UTC 2021-07-09 06:33:45
Tagged date : UTC 2021-07-09 06:33:45
Writing application : Lavf58.20.100
Comment : Black.Widow.2021.1080p.WEBRip.x264-RARBG

Video
ID : 1
Format : AVC
Format/Info : Advanced Video Codec
Format profile : [email protected]
Format settings : CABAC / 4 Ref Frames
Format settings, CABAC : Yes
Format settings, Reference frames : 4 frames
Codec ID : avc1
Codec ID/Info : Advanced Video Coding
Duration : 2 h 13 min
Bit rate : 2 500 kb/s
Width : 1 920 pixels
Height : 800 pixels
Display aspect ratio : 2.40:1
Frame rate mode : Constant
Frame rate : 23.976 (23976/1000) FPS
Color space : YUV
Chroma subsampling : 4:2:0
Bit depth : 8 bits
Scan type : Progressive
Bits/(Pixel*Frame) : 0.068
Stream size : 2.34 GiB (92%)
Writing library : x264 core 152 r2851M ba24899
Encoding settings : cabac=1 / ref=4 / deblock=1:-1:-1 / analyse=0x3:0x113 / me=umh / subme=9 / psy=1 / psy_rd=1.00:0.15 / mixed_ref=1 / me_range=24 / chroma_me=1 / trellis=2 / 8x8dct=1 / cqm=0 / deadzone=21,11 / fast_pskip=1 / chroma_qp_offset=-3 / threads=16 / lookahead_threads=4 / sliced_threads=0 / nr=0 / decimate=1 / interlaced=0 / bluray_compat=0 / constrained_intra=0 / bframes=3 / b_pyramid=2 / b_adapt=2 / b_bias=0 / direct=3 / weightb=1 / open_gop=0 / weightp=2 / keyint=250 / keyint_min=25 / scenecut=40 / intra_refresh=0 / rc_lookahead=50 / rc=2pass / mbtree=1 / bitrate=2500 / ratetol=1.0 / qcomp=0.60 / qpmin=0 / qpmax=69 / qpstep=4 / cplxblur=20.0 / qblur=0.5 / vbv_maxrate=31250 / vbv_bufsize=31250 / nal_hrd=none / filler=0 / ip_ratio=1.40 / aq=3:1.00
Encoded date : UTC 2021-07-09 06:33:45
Tagged date : UTC 2021-07-09 06:33:45
Codec configuration box : avcC

Audio
ID : 2
Format : AAC LC
Format/Info : Advanced Audio Codec Low Complexity
Codec ID : mp4a-40-2
Duration : 2 h 13 min
Duration_LastFrame : -11 ms
Bit rate mode : Constant
Bit rate : 224 kb/s
Channel(s) : 6 channels
Channel layout : C L R Ls Rs LFE
Sampling rate : 48.0 kHz
Frame rate : 46.875 FPS (1024 SPF)
Compression mode : Lossy
Stream size : 214 MiB (8%)
Language : English
Default : Yes
Alternate group : 1
Encoded date : UTC 2021-07-09 06:33:45
Tagged date : UTC 2021-07-09 06:33:45

2160p.DSNP.WEB-DL.DDP5.1.Atmos.DV.x265-MZABI

General
Complete name : Black.Widow.2021.2160p.DSNP.WEB-DL.DDP5.1.Atmos.DV.HEVC-MZABI.mp4
Format : MPEG-4
Format profile : Base Media / Version 2
Codec ID : mp42 (isom/mp42/dby1)
File size : 16.1 GiB
Duration : 2 h 13 min
Overall bit rate mode : Variable
Overall bit rate : 17.2 Mb/s
Encoded date : UTC 2021-07-09 08:34:14
Tagged date : UTC 2021-07-09 08:34:14

Video
ID : 1
Format : HEVC
Format/Info : High Efficiency Video Coding
Format profile : Main [email protected]@High
HDR format : Dolby Vision, Version 1.0, dvhe.05.06, BL+RPU
Codec ID : dvhe
Codec ID/Info : High Efficiency Video Coding with Dolby Vision
Duration : 2 h 13 min
Bit rate : 16.4 Mb/s
Width : 3 840 pixels
Height : 2 160 pixels
Display aspect ratio : 16:9
Frame rate mode : Constant
Frame rate : 23.976 (24000/1001) FPS
Color space : YUV
Chroma subsampling : 4:2:0
Bit depth : 10 bits
Bits/(Pixel*Frame) : 0.083
Stream size : 15.3 GiB (96%)
Language : English
Default : Yes
Alternate group : 1
Encoded date : UTC 2021-07-09 08:22:24
Tagged date : UTC 2021-07-09 08:34:48
Color range : Full
Codec configuration box : hvcC+dvcC

Audio
ID : 2
Format : E-AC-3 JOC
Format/Info : Enhanced AC-3 with Joint Object Coding
Commercial name : Dolby Digital Plus with Dolby Atmos
Codec ID : ac-3
Duration : 2 h 13 min
Bit rate mode : Constant
Bit rate : 768 kb/s
Maximum bit rate : 811 kb/s
Channel(s) : 6 channels
Channel layout : L R C LFE Ls Rs
Sampling rate : 48.0 kHz
Frame rate : 31.250 FPS (1536 SPF)
Compression mode : Lossy
Stream size : 735 MiB (4%)
Language : English
Service kind : Complete Main
Default : No
Alternate group : 2
Encoded date : UTC 2021-07-09 08:34:39
Tagged date : UTC 2021-07-09 08:34:48
Complexity index : Not present / 16
Number of dynamic objects : 15
Bed channel count : 1 channel
Bed channel configuration : LFE

Text #1
ID : 3
Format : Timed Text
Codec ID : tx3g
Duration : 2 h 13 min
Bit rate mode : Variable
Bit rate : 44 b/s
Stream size : 43.5 KiB (0%)
Title : English
Language : English
Forced : No
Encoded date : UTC 2021-07-09 08:34:46
Tagged date : UTC 2021-07-09 08:34:48

Text #2
ID : 4
Format : Timed Text
Codec ID : tx3g
Duration : 2 h 13 min
Bit rate mode : Variable
Bit rate : 53 b/s
Stream size : 51.6 KiB (0%)
Title : English [SDH] Language : English
Forced : No
Encoded date : UTC 2021-07-09 08:34:46
Tagged date : UTC 2021-07-09 08:34:48

Text #3
ID : 5
Format : Timed Text
Codec ID : tx3g
Duration : 2 h 13 min
Bit rate mode : Variable
Bit rate : 44 b/s
Stream size : 43.1 KiB (0%)
Title : Brazilian Portuguese
Language : Portuguese
Forced : No
Encoded date : UTC 2021-07-09 08:34:46
Tagged date : UTC 2021-07-09 08:34:48

Text #4
ID : 6
Format : Timed Text
Codec ID : tx3g
Duration : 2 h 13 min
Bit rate mode : Variable
Bit rate : 48 b/s
Stream size : 47.4 KiB (0%)
Title : French Canadian
Language : French
Forced : No
Encoded date : UTC 2021-07-09 08:34:46
Tagged date : UTC 2021-07-09 08:34:48

Text #5
ID : 7
Format : Timed Text
Codec ID : tx3g
Duration : 2 h 13 min
Bit rate mode : Variable
Bit rate : 36 b/s
Stream size : 35.6 KiB (0%)
Title : Danish
Language : Danish
Forced : No
Encoded date : UTC 2021-07-09 08:34:47
Tagged date : UTC 2021-07-09 08:34:48

Text #6
ID : 8
Format : Timed Text
Codec ID : tx3g
Duration : 2 h 13 min
Bit rate mode : Variable
Bit rate : 40 b/s
Stream size : 39.3 KiB (0%)
Title : German
Language : German
Forced : No
Encoded date : UTC 2021-07-09 08:34:47
Tagged date : UTC 2021-07-09 08:34:48

Text #7
ID : 9
Format : Timed Text
Codec ID : tx3g
Duration : 2 h 13 min
Bit rate mode : Variable
Bit rate : 41 b/s
Stream size : 39.8 KiB (0%)
Title : European Spanish
Language : Spanish
Forced : No
Encoded date : UTC 2021-07-09 08:34:47
Tagged date : UTC 2021-07-09 08:34:48

Text #8
ID : 10
Format : Timed Text
Codec ID : tx3g
Duration : 2 h 13 min
Bit rate mode : Variable
Bit rate : 44 b/s
Stream size : 43.0 KiB (0%)
Title : Finnish
Language : Finnish
Forced : No
Encoded date : UTC 2021-07-09 08:34:47
Tagged date : UTC 2021-07-09 08:34:48

Text #9
ID : 11
Format : Timed Text
Codec ID : tx3g
Duration : 2 h 13 min
Bit rate mode : Variable
Bit rate : 38 b/s
Stream size : 37.2 KiB (0%)
Title : French
Language : French
Forced : No
Encoded date : UTC 2021-07-09 08:34:47
Tagged date : UTC 2021-07-09 08:34:48

Text #10
ID : 12
Format : Timed Text
Codec ID : tx3g
Duration : 2 h 13 min
Bit rate mode : Variable
Bit rate : 45 b/s
Stream size : 43.7 KiB (0%)
Title : Italian
Language : Italian
Forced : No
Encoded date : UTC 2021-07-09 08:34:47
Tagged date : UTC 2021-07-09 08:34:48

Text #11
ID : 13
Format : Timed Text
Codec ID : tx3g
Duration : 2 h 13 min
Bit rate mode : Variable
Bit rate : 37 b/s
Stream size : 36.4 KiB (0%)
Title : Japanese
Language : Japanese
Forced : No
Encoded date : UTC 2021-07-09 08:34:47
Tagged date : UTC 2021-07-09 08:34:48

Text #12
ID : 14
Format : Timed Text
Codec ID : tx3g
Duration : 2 h 13 min
Bit rate mode : Variable
Bit rate : 40 b/s
Stream size : 38.9 KiB (0%)
Title : Dutch
Language : Dutch
Forced : No
Encoded date : UTC 2021-07-09 08:34:47
Tagged date : UTC 2021-07-09 08:34:48

Text #13
ID : 15
Format : Timed Text
Codec ID : tx3g
Duration : 2 h 13 min
Bit rate mode : Variable
Bit rate : 39 b/s
Stream size : 38.3 KiB (0%)
Title : Norwegian
Language : Norwegian
Forced : No
Encoded date : UTC 2021-07-09 08:34:47
Tagged date : UTC 2021-07-09 08:34:48

Text #14
ID : 16
Format : Timed Text
Codec ID : tx3g
Duration : 2 h 13 min
Bit rate mode : Variable
Bit rate : 43 b/s
Stream size : 42.2 KiB (0%)
Title : Portuguese
Language : Portuguese
Forced : No
Encoded date : UTC 2021-07-09 08:34:48
Tagged date : UTC 2021-07-09 08:34:48

Text #15
ID : 17
Format : Timed Text
Codec ID : tx3g
Duration : 2 h 13 min
Bit rate mode : Variable
Bit rate : 45 b/s
Stream size : 44.2 KiB (0%)
Title : Spanish
Language : Spanish
Forced : No
Encoded date : UTC 2021-07-09 08:34:48
Tagged date : UTC 2021-07-09 08:34:48

Text #16
ID : 18
Format : Timed Text
Codec ID : tx3g
Duration : 2 h 13 min
Bit rate mode : Variable
Bit rate : 40 b/s
Stream size : 38.7 KiB (0%)
Title : Swedish
Language : Swedish
Forced : No
Encoded date : UTC 2021-07-09 08:34:48
Tagged date : UTC 2021-07-09 08:34:48

2160p.DSNP.WEB-DL.x265.10bit.HDR.DDP5.1.Atmos-CM

General
Unique ID : 282763733802920555143887858503197061006 (0xD4BA50702EE1151A69DB13DF939AEF8E)
Complete name : Black.Widow.2021.2160p.DSNP.WEB-DL.DDP5.1.Atmos.HDR.HEVC-CMRG.mkv
Format : Matroska
Format version : Version 4
File size : 16.0 GiB
Duration : 2 h 13 min
Overall bit rate : 17.1 Mb/s
Encoded date : UTC 2021-07-09 06:52:32
Writing application : mkvmerge v58.0.0 (‘Supper’s Ready’) 64-bit
Writing library : libebml v1.4.2 + libmatroska v1.6.4

Video
ID : 1
Format : HEVC
Format/Info : High Efficiency Video Coding
Format profile : Main [email protected]@High
HDR format : SMPTE ST 2086, HDR10 compatible
Codec ID : V_MPEGH/ISO/HEVC
Duration : 2 h 13 min
Bit rate : 16.4 Mb/s
Width : 3 840 pixels
Height : 2 160 pixels
Display aspect ratio : 16:9
Frame rate mode : Constant
Frame rate : 23.976 (24000/1001) FPS
Color space : YUV
Chroma subsampling : 4:2:0
Bit depth : 10 bits
Bits/(Pixel*Frame) : 0.082
Stream size : 15.3 GiB (95%)
Default : Yes
Forced : No
Color range : Limited
Color primaries : BT.2020
Transfer characteristics : PQ
Matrix coefficients : BT.2020 non-constant
Mastering display color primaries : Display P3
Mastering display luminance : min: 0.0050 cd/m2, max: 4000 cd/m2

Audio
ID : 2
Format : E-AC-3 JOC
Format/Info : Enhanced AC-3 with Joint Object Coding
Commercial name : Dolby Digital Plus with Dolby Atmos
Codec ID : A_EAC3
Duration : 2 h 13 min
Bit rate mode : Constant
Bit rate : 768 kb/s
Channel(s) : 6 channels
Channel layout : L R C LFE Ls Rs
Sampling rate : 48.0 kHz
Frame rate : 31.250 FPS (1536 SPF)
Compression mode : Lossy
Stream size : 735 MiB (4%)
Title : English
Language : English
Service kind : Complete Main
Default : No
Forced : No
Complexity index : 16
Number of dynamic objects : 15
Bed channel count : 1 channel
Bed channel configuration : LFE

Text #1
ID : 3
Format : UTF-8
Codec ID : S_TEXT/UTF8
Codec ID/Info : UTF-8 Plain Text
Duration : 2 h 12 min
Bit rate : 40 b/s
Count of elements : 1301
Stream size : 39.4 KiB (0%)
Title : Spanish
Language : Spanish
Default : No
Forced : No

Text #2
ID : 4
Format : UTF-8
Codec ID : S_TEXT/UTF8
Codec ID/Info : UTF-8 Plain Text
Duration : 2 h 12 min
Bit rate : 43 b/s
Count of elements : 1319
Stream size : 42.7 KiB (0%)
Title : French Canadian
Language : French
Default : No
Forced : No

Text #3
ID : 5
Format : UTF-8
Codec ID : S_TEXT/UTF8
Codec ID/Info : UTF-8 Plain Text
Duration : 2 h 12 min
Bit rate : 35 b/s
Count of elements : 1204
Stream size : 34.8 KiB (0%)
Title : German
Language : German
Default : No
Forced : No

Text #4
ID : 6
Format : UTF-8
Codec ID : S_TEXT/UTF8
Codec ID/Info : UTF-8 Plain Text
Duration : 2 h 12 min
Bit rate : 34 b/s
Count of elements : 1299
Stream size : 33.8 KiB (0%)
Title : Norwegian
Language : Norwegian
Default : No
Forced : No

Text #5
ID : 7
Format : UTF-8
Codec ID : S_TEXT/UTF8
Codec ID/Info : UTF-8 Plain Text
Duration : 2 h 12 min
Bit rate : 35 b/s
Count of elements : 1114
Stream size : 34.9 KiB (0%)
Title : Dutch
Language : Dutch
Default : No
Forced : No

Text #6
ID : 8
Format : UTF-8
Codec ID : S_TEXT/UTF8
Codec ID/Info : UTF-8 Plain Text
Duration : 2 h 12 min
Bit rate : 39 b/s
Count of elements : 1297
Stream size : 38.5 KiB (0%)
Title : Brazilian Portuguese
Language : Portuguese
Default : No
Forced : No

Text #7
ID : 9
Format : UTF-8
Codec ID : S_TEXT/UTF8
Codec ID/Info : UTF-8 Plain Text
Duration : 2 h 12 min
Bit rate : 33 b/s
Count of elements : 1256
Stream size : 32.4 KiB (0%)
Title : French
Language : French
Default : No
Forced : No

Text #8
ID : 10
Format : UTF-8
Codec ID : S_TEXT/UTF8
Codec ID/Info : UTF-8 Plain Text
Duration : 2 h 12 min
Bit rate : 36 b/s
Count of elements : 1277
Stream size : 35.0 KiB (0%)
Title : European Spanish
Language : Spanish
Default : No
Forced : No

Text #9
ID : 11
Format : UTF-8
Codec ID : S_TEXT/UTF8
Codec ID/Info : UTF-8 Plain Text
Duration : 2 h 12 min
Bit rate : 32 b/s
Count of elements : 1257
Stream size : 31.6 KiB (0%)
Title : Japanese
Language : Japanese
Default : No
Forced : No

Text #10
ID : 12
Format : UTF-8
Codec ID : S_TEXT/UTF8
Codec ID/Info : UTF-8 Plain Text
Duration : 2 h 12 min
Bit rate : 35 b/s
Count of elements : 1080
Stream size : 34.8 KiB (0%)
Title : Swedish
Language : Swedish
Default : No
Forced : No

Text #11
ID : 13
Format : UTF-8
Codec ID : S_TEXT/UTF8
Codec ID/Info : UTF-8 Plain Text
Duration : 2 h 12 min
Bit rate : 33 b/s
Count of elements : 923
Stream size : 32.4 KiB (0%)
Title : Danish
Language : Danish
Default : No
Forced : No

Text #12
ID : 14
Format : UTF-8
Codec ID : S_TEXT/UTF8
Codec ID/Info : UTF-8 Plain Text
Duration : 2 h 12 min
Bit rate : 38 b/s
Count of elements : 1273
Stream size : 37.6 KiB (0%)
Title : Portuguese
Language : Portuguese
Default : No
Forced : No

Text #13
ID : 15
Format : UTF-8
Codec ID : S_TEXT/UTF8
Codec ID/Info : UTF-8 Plain Text
Duration : 2 h 12 min
Bit rate : 40 b/s
Count of elements : 1278
Stream size : 39.1 KiB (0%)
Title : Italian
Language : Italian
Default : No
Forced : No

Text #14
ID : 16
Format : UTF-8
Codec ID : S_TEXT/UTF8
Codec ID/Info : UTF-8 Plain Text
Duration : 2 h 12 min
Bit rate : 39 b/s
Count of elements : 1300
Stream size : 38.3 KiB (0%)
Title : Finnish
Language : Finnish
Default : No
Forced : No

Text #15
ID : 17
Format : UTF-8
Codec ID : S_TEXT/UTF8
Codec ID/Info : UTF-8 Plain Text
Duration : 2 h 12 min
Bit rate : 39 b/s
Count of elements : 1306
Stream size : 38.8 KiB (0%)
Title : English
Language : English
Default : No
Forced : No

Text #16
ID : 18
Format : UTF-8
Codec ID : S_TEXT/UTF8
Codec ID/Info : UTF-8 Plain Text
Duration : 2 h 13 min
Bit rate : 46 b/s
Count of elements : 1630
Stream size : 45.7 KiB (0%)
Title : English [SDH] Language : English
Default : No
Forced : No

3 Responses

  1. Poyfi says:

    when i try to unzip it it asks me for password

    • vaderman212 says:

      The 1080p copy didn’t ask me for a password. Haven’t downloaded the 2160p version though.

    • megaddl says:

      The files do not have a password, if you ask, I download another file from some external advertising.

Leave a Reply

Your email address will not be published. Required fields are marked *