Better Days (2019) | 720p & 1080p & 2160p BluRay x265-BvS

When it is time for the Chinese gaokao, the entire country comes to a standstill. For nearly ten million high school students, this two-day national college entrance exam will determine where and if they get to study. It is not uncommon for the fates of entire families to hinge on the results. Like so many others, Nian has been focused on preparing for the exam, at the exclusion of everything else and is all alone. A classmate has committed suicide and she has become the target of relentless bullying. Meanwhile, fate brings her together with small-time criminal Bei and the two of them seal a pact.

Links: iMDB | Trailer

Note: In Chinese with English/Chinese Selectable Subtitles

DOWNLOAD

VIP (GOOGLE DRIVE)

This content is reserved for registered users. BUY A VIP MEMBERSHIP HERE and login to be able to see it.

FREE

  • Better Days (2019) (1080p BluRay x265 HEVC 10bit AAC 5.1 Chinese Tigole) – 6.17GB

NFO

WEBRip.x264-ION10

 

720p.x265-BvS

 

1080p.x265-Tigole

General
Unique ID : 139315766223429844045263949491996223632 (0x68CF3D9745EF19F59B1A27C6E6286890)
Complete name : Better Days (2019) (1080p BluRay x265 10bit Tigole).mkv
Format : Matroska
Format version : Version 4
File size : 6.17 GiB
Duration : 2 h 15 min
Overall bit rate : 6 511 kb/s
Movie name : Better Days
Encoded date : UTC 2021-05-24 13:38:20
Writing application : mkvmerge v55.0.0 (‘Waiting For Space’) 64-bit
Writing library : libebml v1.4.2 + libmatroska v1.6.4

Video
ID : 1
Format : HEVC
Format/Info : High Efficiency Video Coding
Format profile : Main [email protected]@Main
Codec ID : V_MPEGH/ISO/HEVC
Duration : 2 h 15 min
Bit rate : 6 036 kb/s
Width : 1 920 pixels
Height : 1 036 pixels
Display aspect ratio : 1.85:1
Frame rate mode : Constant
Frame rate : 24.000 FPS
Color space : YUV
Chroma subsampling : 4:2:0
Bit depth : 10 bits
Bits/(Pixel*Frame) : 0.126
Stream size : 5.72 GiB (93%)
Writing library : x265M – 3.4+35-772bb4c84:[Windows][GCC 10.2.0][64 bit] 10bit
Encoding settings : cpuid=1111039 / frame-threads=3 / numa-pools=8 / wpp / no-pmode / no-pme / no-psnr / no-ssim / log-level=2 / input-csp=1 / input-res=1920×1036 / interlace=0 / total-frames=195327 / level-idc=0 / high-tier=1 / uhd-bd=0 / ref=4 / no-allow-non-conformance / no-repeat-headers / annexb / no-aud / no-hrd / info / hash=0 / no-temporal-layers / open-gop / min-keyint=24 / keyint=250 / gop-lookahead=0 / bframes=8 / b-adapt=2 / b-pyramid / bframe-bias=0 / rc-lookahead=25 / lookahead-slices=4 / scenecut=40 / hist-scenecut=0 / radl=0 / no-splice / no-intra-refresh / ctu=64 / min-cu-size=8 / rect / no-amp / max-tu-size=32 / tu-inter-depth=1 / tu-intra-depth=1 / limit-tu=0 / rdoq-level=2 / dynamic-rd=0.00 / no-ssim-rd / signhide / no-tskip / nr-intra=0 / nr-inter=0 / no-constrained-intra / strong-intra-smoothing / max-merge=3 / limit-refs=3 / limit-modes / me=3 / subme=3 / merange=57 / temporal-mvp / no-frame-dup / no-hme / weightp / no-weightb / no-analyze-src-pics / deblock=0:0 / no-sao / no-sao-non-deblock / rd=4 / selective-sao=0 / no-early-skip / rskip / no-fast-intra / no-tskip-fast / no-cu-lossless / no-b-intra / no-splitrd-skip / rdpenalty=0 / psy-rd=2.00 / psy-rdoq=1.00 / no-rd-refine / no-lossless / cbqpoffs=0 / crqpoffs=0 / rc=crf / crf=18.0 / qcomp=0.60 / qpstep=4 / stats-write=0 / stats-read=0 / ipratio=1.40 / pbratio=1.30 / aq-mode=3 / aq-strength=1.00 / cutree / zone-count=0 / no-strict-cbr / qg-size=32 / no-rc-grain / qpmax=69 / qpmin=0 / no-const-vbv / sar=0 / overscan=0 / videoformat=5 / range=0 / colorprim=2 / transfer=2 / colormatrix=2 / chromaloc=0 / display-window=0 / cll=0,0 / min-luma=0 / max-luma=1023 / log2-max-poc-lsb=8 / vui-timing-info / vui-hrd-info / slices=1 / no-opt-qp-pps / no-opt-ref-list-length-pps / no-multi-pass-opt-rps / scenecut-bias=0.05 / hist-threshold=0.03 / no-opt-cu-delta-qp / aq-motion / no-hdr10 / no-hdr10-opt / no-dhdr10-opt / no-idr-recovery-sei / analysis-reuse-level=0 / analysis-save-reuse-level=0 / analysis-load-reuse-level=0 / scale-factor=0 / refine-intra=0 / refine-inter=0 / refine-mv=1 / refine-ctu-distortion=0 / no-limit-sao / ctu-info=0 / no-lowpass-dct / refine-analysis-type=0 / copy-pic=1 / max-ausize-factor=1.0 / no-dynamic-refine / no-single-sei / no-hevc-aq / no-svt / no-field / qp-adaptation-range=1.00 / scenecut-aware-qp=0conformance-window-offsets / right=0 / bottom=0 / decoder-max-rate=0 / no-vbv-live-multi-pass
Default : Yes
Forced : No

Audio
ID : 2
Format : AAC LC
Format/Info : Advanced Audio Codec Low Complexity
Codec ID : A_AAC-2
Duration : 2 h 15 min
Bit rate : 465 kb/s
Channel(s) : 6 channels
Channel layout : C L R Ls Rs LFE
Sampling rate : 48.0 kHz
Frame rate : 46.875 FPS (1024 SPF)
Compression mode : Lossy
Delay relative to video : 20 ms
Stream size : 451 MiB (7%)
Language : Chinese
Default : Yes
Forced : No

Text #1
ID : 3
Format : VobSub
Muxing mode : zlib
Codec ID : S_VOBSUB
Codec ID/Info : Picture based subtitle format used on DVDs
Duration : 2 h 9 min
Bit rate : 7 470 b/s
Count of elements : 1381
Stream size : 6.91 MiB (0%)
Language : English
Default : Yes
Forced : No

Text #2
ID : 4
Format : VobSub
Muxing mode : zlib
Codec ID : S_VOBSUB
Codec ID/Info : Picture based subtitle format used on DVDs
Duration : 2 h 9 min
Bit rate : 5 922 b/s
Count of elements : 1410
Stream size : 5.48 MiB (0%)
Language : Chinese
Default : No
Forced : No

Menu
00:00:00.000 : en:Chapter 01
00:07:11.500 : en:Chapter 02
00:15:03.666 : en:Chapter 03
00:23:36.833 : en:Chapter 04
00:36:49.083 : en:Chapter 05
00:46:53.041 : en:Chapter 06
00:55:34.750 : en:Chapter 07
01:08:54.666 : en:Chapter 08
01:15:19.666 : en:Chapter 09
01:24:33.750 : en:Chapter 10
01:35:15.333 : en:Chapter 11
01:51:35.750 : en:Chapter 12
02:06:44.291 : en:Chapter 13

Leave a Reply

Your email address will not be published. Required fields are marked *