Ben-Hur (1959) | 720p & 1080p & 2160p BluRay x265-BvS

Judah Ben-Hur lives as a rich Jewish prince and merchant in Jerusalem at the beginning of the 1st century. Together with the new governor his old friend Messala arrives as commanding officer of the Roman legions. At first they are happy to meet after a long time but their different politic views separate them. During the welcome parade a roof tile falls down from Judah’s house and injures the governor. Although Messala knows they are not guilty, he sends Judah to the galleys and throws his mother and sister into prison. But Judah swears to come back and take revenge.

Links : iMDB

Note: In English with English/French/German/Spanish Selectable Subtitles

DOWNLOAD

VIP

This content is reserved for registered users. BUY A VIP MEMBERSHIP HERE and login to be able to see it.

FREE

  • Ben-Hur (1959) 50th Anniv (1080p BluRay x265 10bit Tigole) – VIP

NFO

Ben-Hur (1959) 50th Anniv (1080p BluRay x265 10bit Tigole)

General
Unique ID : 36963126543478969151992417138087118652 (0x1BCED6D7702E029F209FDF1CA64D473C)
Complete name : Ben-Hur (1959) 50th Anniv (1080p BluRay x265 10bit Tigole).mkv
Format : Matroska
Format version : Version 4
File size : 11.1 GiB
Duration : 3 h 42 min
Overall bit rate : 7 119 kb/s
Encoded date : UTC 2021-05-29 20:31:29
Writing application : mkvmerge v55.0.0 (‘Waiting For Space’) 64-bit
Writing library : libebml v1.4.2 + libmatroska v1.6.4

Video
ID : 1
Format : HEVC
Format/Info : High Efficiency Video Coding
Format profile : Main [email protected]@Main
Codec ID : V_MPEGH/ISO/HEVC
Duration : 3 h 42 min
Bit rate : 6 501 kb/s
Width : 1 920 pixels
Height : 696 pixels
Display aspect ratio : 2.759
Frame rate mode : Constant
Frame rate : 23.976 (24000/1001) FPS
Color space : YUV
Chroma subsampling : 4:2:0
Bit depth : 10 bits
Bits/(Pixel*Frame) : 0.203
Stream size : 10.1 GiB (91%)
Writing library : x265M – 3.4+35-772bb4c84:[Windows][GCC 10.2.0][64 bit] 10bit
Encoding settings : cpuid=1111039 / frame-threads=3 / numa-pools=8 / wpp / no-pmode / no-pme / no-psnr / no-ssim / log-level=2 / input-csp=1 / input-res=1920×696 / interlace=0 / total-frames=320007 / level-idc=0 / high-tier=1 / uhd-bd=0 / ref=4 / no-allow-non-conformance / no-repeat-headers / annexb / no-aud / no-hrd / info / hash=0 / no-temporal-layers / open-gop / min-keyint=23 / keyint=250 / gop-lookahead=0 / bframes=4 / b-adapt=2 / b-pyramid / bframe-bias=0 / rc-lookahead=25 / lookahead-slices=0 / scenecut=40 / hist-scenecut=0 / radl=0 / no-splice / no-intra-refresh / ctu=64 / min-cu-size=8 / rect / no-amp / max-tu-size=32 / tu-inter-depth=1 / tu-intra-depth=1 / limit-tu=0 / rdoq-level=2 / dynamic-rd=0.00 / no-ssim-rd / signhide / no-tskip / nr-intra=0 / nr-inter=0 / no-constrained-intra / strong-intra-smoothing / max-merge=3 / limit-refs=3 / limit-modes / me=3 / subme=3 / merange=57 / temporal-mvp / no-frame-dup / no-hme / weightp / no-weightb / no-analyze-src-pics / deblock=0:0 / no-sao / no-sao-non-deblock / rd=4 / selective-sao=0 / no-early-skip / rskip / no-fast-intra / no-tskip-fast / no-cu-lossless / no-b-intra / no-splitrd-skip / rdpenalty=0 / psy-rd=2.00 / psy-rdoq=1.00 / no-rd-refine / no-lossless / cbqpoffs=0 / crqpoffs=0 / rc=abr / bitrate=6500 / qcomp=0.60 / qpstep=4 / stats-write=0 / stats-read=2 / cplxblur=20.0 / qblur=0.5 / ipratio=1.40 / pbratio=1.30 / aq-mode=3 / aq-strength=1.00 / cutree / zone-count=0 / no-strict-cbr / qg-size=32 / no-rc-grain / qpmax=69 / qpmin=0 / no-const-vbv / sar=0 / overscan=0 / videoformat=5 / range=0 / colorprim=2 / transfer=2 / colormatrix=2 / chromaloc=0 / display-window=0 / cll=0,0 / min-luma=0 / max-luma=1023 / log2-max-poc-lsb=8 / vui-timing-info / vui-hrd-info / slices=1 / no-opt-qp-pps / no-opt-ref-list-length-pps / multi-pass-opt-rps / scenecut-bias=0.05 / hist-threshold=0.03 / no-opt-cu-delta-qp / aq-motion / no-hdr10 / no-hdr10-opt / no-dhdr10-opt / no-idr-recovery-sei / analysis-reuse-level=0 / analysis-save-reuse-level=0 / analysis-load-reuse-level=0 / scale-factor=0 / refine-intra=0 / refine-inter=0 / refine-mv=1 / refine-ctu-distortion=0 / no-limit-sao / ctu-info=0 / no-lowpass-dct / refine-analysis-type=0 / copy-pic=1 / max-ausize-factor=1.0 / no-dynamic-refine / no-single-sei / no-hevc-aq / no-svt / no-field / qp-adaptation-range=1.00 / scenecut-aware-qp=0conformance-window-offsets / right=0 / bottom=0 / decoder-max-rate=0 / no-vbv-live-multi-pass
Default : Yes
Forced : No

Audio #1
ID : 2
Format : AAC LC
Format/Info : Advanced Audio Codec Low Complexity
Codec ID : A_AAC-2
Duration : 3 h 42 min
Bit rate : 364 kb/s
Channel(s) : 6 channels
Channel layout : C L R Ls Rs LFE
Sampling rate : 48.0 kHz
Frame rate : 46.875 FPS (1024 SPF)
Compression mode : Lossy
Delay relative to video : 20 ms
Stream size : 580 MiB (5%)
Language : English
Default : Yes
Forced : No

Audio #2
ID : 3
Format : AAC LC SBR
Format/Info : Advanced Audio Codec Low Complexity with Spectral Band Replication
Commercial name : HE-AAC
Format settings : Explicit
Codec ID : A_AAC-2
Duration : 3 h 42 min
Bit rate : 66.2 kb/s
Channel(s) : 2 channels
Channel layout : L R
Sampling rate : 48.0 kHz
Frame rate : 23.438 FPS (2048 SPF)
Compression mode : Lossy
Delay relative to video : 40 ms
Stream size : 105 MiB (1%)
Title : Commentary
Language : English
Default : No
Forced : No

Audio #3
ID : 4
Format : AAC LC
Format/Info : Advanced Audio Codec Low Complexity
Codec ID : A_AAC-2
Duration : 3 h 42 min
Bit rate : 127 kb/s
Channel(s) : 2 channels
Channel layout : L R
Sampling rate : 48.0 kHz
Frame rate : 46.875 FPS (1024 SPF)
Compression mode : Lossy
Delay relative to video : 20 ms
Stream size : 202 MiB (2%)
Title : Isolated Score
Language : English
Default : No
Forced : No

Text #1
ID : 5
Format : VobSub
Muxing mode : zlib
Codec ID : S_VOBSUB
Codec ID/Info : Picture based subtitle format used on DVDs
Duration : 3 h 35 min
Bit rate : 5 783 b/s
Count of elements : 1690
Stream size : 8.91 MiB (0%)
Language : English
Default : No
Forced : No

Text #2
ID : 6
Format : VobSub
Muxing mode : zlib
Codec ID : S_VOBSUB
Codec ID/Info : Picture based subtitle format used on DVDs
Duration : 3 h 42 min
Bit rate : 4 440 b/s
Count of elements : 1534
Stream size : 7.06 MiB (0%)
Language : Croatian
Default : No
Forced : No

Text #3
ID : 7
Format : VobSub
Muxing mode : zlib
Codec ID : S_VOBSUB
Codec ID/Info : Picture based subtitle format used on DVDs
Duration : 3 h 35 min
Bit rate : 3 656 b/s
Count of elements : 1494
Stream size : 5.63 MiB (0%)
Language : Czech
Default : No
Forced : No

Text #4
ID : 8
Format : VobSub
Muxing mode : zlib
Codec ID : S_VOBSUB
Codec ID/Info : Picture based subtitle format used on DVDs
Duration : 3 h 35 min
Bit rate : 4 150 b/s
Count of elements : 1054
Stream size : 6.40 MiB (0%)
Language : Danish
Default : No
Forced : No

Text #5
ID : 9
Format : VobSub
Muxing mode : zlib
Codec ID : S_VOBSUB
Codec ID/Info : Picture based subtitle format used on DVDs
Duration : 3 h 35 min
Bit rate : 4 127 b/s
Count of elements : 1216
Stream size : 6.36 MiB (0%)
Language : Dutch
Default : No
Forced : No

Text #6
ID : 10
Format : VobSub
Muxing mode : zlib
Codec ID : S_VOBSUB
Codec ID/Info : Picture based subtitle format used on DVDs
Duration : 3 h 42 min
Bit rate : 4 759 b/s
Count of elements : 1161
Stream size : 7.57 MiB (0%)
Language : Finnish
Default : No
Forced : No

Text #7
ID : 11
Format : VobSub
Muxing mode : zlib
Codec ID : S_VOBSUB
Codec ID/Info : Picture based subtitle format used on DVDs
Duration : 3 h 35 min
Bit rate : 4 562 b/s
Count of elements : 1409
Stream size : 7.03 MiB (0%)
Language : French
Default : No
Forced : No

Text #8
ID : 12
Format : VobSub
Muxing mode : zlib
Codec ID : S_VOBSUB
Codec ID/Info : Picture based subtitle format used on DVDs
Duration : 3 h 42 min
Bit rate : 6 213 b/s
Count of elements : 1632
Stream size : 9.88 MiB (0%)
Language : German
Default : No
Forced : No

Text #9
ID : 13
Format : VobSub
Muxing mode : zlib
Codec ID : S_VOBSUB
Codec ID/Info : Picture based subtitle format used on DVDs
Duration : 3 h 42 min
Bit rate : 4 295 b/s
Count of elements : 1547
Stream size : 6.83 MiB (0%)
Language : Greek
Default : No
Forced : No

Text #10
ID : 14
Format : VobSub
Muxing mode : zlib
Codec ID : S_VOBSUB
Codec ID/Info : Picture based subtitle format used on DVDs
Duration : 3 h 42 min
Bit rate : 3 626 b/s
Count of elements : 1565
Stream size : 5.76 MiB (0%)
Language : Hebrew
Default : No
Forced : No

Text #11
ID : 15
Format : VobSub
Muxing mode : zlib
Codec ID : S_VOBSUB
Codec ID/Info : Picture based subtitle format used on DVDs
Duration : 3 h 42 min
Bit rate : 4 078 b/s
Count of elements : 1552
Stream size : 6.48 MiB (0%)
Language : Hungarian
Default : No
Forced : No

Text #12
ID : 16
Format : VobSub
Muxing mode : zlib
Codec ID : S_VOBSUB
Codec ID/Info : Picture based subtitle format used on DVDs
Duration : 3 h 42 min
Bit rate : 5 184 b/s
Count of elements : 1548
Stream size : 8.24 MiB (0%)
Language : Icelandic
Default : No
Forced : No

Text #13
ID : 17
Format : VobSub
Muxing mode : zlib
Codec ID : S_VOBSUB
Codec ID/Info : Picture based subtitle format used on DVDs
Duration : 3 h 42 min
Bit rate : 4 356 b/s
Count of elements : 1695
Stream size : 6.92 MiB (0%)
Language : Italian
Default : No
Forced : No

Text #14
ID : 18
Format : VobSub
Muxing mode : zlib
Codec ID : S_VOBSUB
Codec ID/Info : Picture based subtitle format used on DVDs
Duration : 3 h 42 min
Bit rate : 4 117 b/s
Count of elements : 1574
Stream size : 6.55 MiB (0%)
Language : Korean
Default : No
Forced : No

Text #15
ID : 19
Format : VobSub
Muxing mode : zlib
Codec ID : S_VOBSUB
Codec ID/Info : Picture based subtitle format used on DVDs
Duration : 3 h 42 min
Bit rate : 4 208 b/s
Count of elements : 1359
Stream size : 6.69 MiB (0%)
Language : Norwegian Bokmal
Default : No
Forced : No

Text #16
ID : 20
Format : VobSub
Muxing mode : zlib
Codec ID : S_VOBSUB
Codec ID/Info : Picture based subtitle format used on DVDs
Duration : 3 h 42 min
Bit rate : 5 134 b/s
Count of elements : 1534
Stream size : 8.16 MiB (0%)
Language : Polish
Default : No
Forced : No

Text #17
ID : 21
Format : VobSub
Muxing mode : zlib
Codec ID : S_VOBSUB
Codec ID/Info : Picture based subtitle format used on DVDs
Duration : 3 h 42 min
Bit rate : 5 003 b/s
Count of elements : 1354
Stream size : 7.95 MiB (0%)
Language : Portuguese
Default : No
Forced : No

Text #18
ID : 22
Format : VobSub
Muxing mode : zlib
Codec ID : S_VOBSUB
Codec ID/Info : Picture based subtitle format used on DVDs
Duration : 3 h 42 min
Bit rate : 4 882 b/s
Count of elements : 1562
Stream size : 7.76 MiB (0%)
Language : Romanian
Default : No
Forced : No

Text #19
ID : 23
Format : VobSub
Muxing mode : zlib
Codec ID : S_VOBSUB
Codec ID/Info : Picture based subtitle format used on DVDs
Duration : 3 h 42 min
Bit rate : 4 475 b/s
Count of elements : 1579
Stream size : 7.12 MiB (0%)
Language : Spanish
Default : No
Forced : No

Text #20
ID : 24
Format : VobSub
Muxing mode : zlib
Codec ID : S_VOBSUB
Codec ID/Info : Picture based subtitle format used on DVDs
Duration : 3 h 35 min
Bit rate : 3 931 b/s
Count of elements : 1015
Stream size : 6.06 MiB (0%)
Language : Swedish
Default : No
Forced : No

Text #21
ID : 25
Format : VobSub
Muxing mode : zlib
Codec ID : S_VOBSUB
Codec ID/Info : Picture based subtitle format used on DVDs
Duration : 3 h 42 min
Bit rate : 4 653 b/s
Count of elements : 1546
Stream size : 7.40 MiB (0%)
Language : Thai
Default : No
Forced : No

Menu
00:00:00.000 : en:Chapter 01
00:06:30.014 : en:Chapter 02
00:11:37.655 : en:Chapter 03
00:13:45.282 : en:Chapter 04
00:16:00.876 : en:Chapter 05
00:17:59.453 : en:Chapter 06
00:21:36.503 : en:Chapter 07
00:25:17.516 : en:Chapter 08
00:28:43.847 : en:Chapter 09
00:31:20.837 : en:Chapter 10
00:36:35.651 : en:Chapter 11
00:40:36.892 : en:Chapter 12
00:45:11.750 : en:Chapter 13
00:48:01.962 : en:Chapter 14
00:51:43.850 : en:Chapter 15
00:54:29.349 : en:Chapter 16
00:58:05.482 : en:Chapter 17
01:01:07.497 : en:Chapter 18
01:05:41.437 : en:Chapter 19
01:10:16.337 : en:Chapter 20
01:14:07.151 : en:Chapter 21
01:17:23.639 : en:Chapter 22
01:21:23.461 : en:Chapter 23
01:24:14.132 : en:Chapter 24
01:26:19.007 : en:Chapter 25
01:30:43.688 : en:Chapter 26
01:34:25.076 : en:Chapter 27
01:38:33.490 : en:Chapter 28
01:41:16.862 : en:Chapter 29
01:45:41.209 : en:Chapter 30
01:50:22.574 : en:Chapter 31
01:54:02.585 : en:Chapter 32
01:58:09.040 : en:Chapter 33
02:02:30.343 : en:Chapter 34
02:06:11.897 : en:Chapter 35
02:10:20.646 : en:Chapter 36
02:12:48.001 : en:Chapter 37
02:18:52.324 : en:Chapter 38
02:21:18.761 : en:Chapter 39
02:21:52.768 : en:Chapter 40
02:25:39.995 : en:Chapter 41
02:30:28.658 : en:Chapter 42
02:32:41.332 : en:Chapter 43
02:36:58.673 : en:Chapter 44
02:40:33.137 : en:Chapter 45
02:42:33.424 : en:Chapter 46
02:47:03.026 : en:Chapter 47
02:50:54.382 : en:Chapter 48
02:52:31.563 : en:Chapter 49
02:54:35.937 : en:Chapter 50
03:00:05.266 : en:Chapter 51
03:02:21.152 : en:Chapter 52
03:06:50.671 : en:Chapter 53
03:10:32.518 : en:Chapter 54
03:14:27.586 : en:Chapter 55
03:18:39.296 : en:Chapter 56
03:24:05.747 : en:Chapter 57
03:27:18.439 : en:Chapter 58
03:31:33.653 : en:Chapter 59
03:34:38.462 : en:Chapter 60
03:39:23.956 : en:Chapter 61

 

Leave a Reply

Your email address will not be published. Required fields are marked *