A View to a Kill (1985) | 720p & 1080p & 2160p BluRay x265-BvS

A View to a Kill (1985)

The recovery of a microchip off the body of a fellow agent leads James Bond to a mad industrialist who plans to create a worldwide microchip monopoly by destroying California’s Silicon Valley.

Links: IMDB Trailer

Note: In English with English/French/Spanish/Portuguese Selectable Subtitles

DOWNLOAD

VIP

This content is reserved for registered users. Sign up here o login to be able to see it. Buy your VIP membership

FREE

  • A.View.to.a.Kill.1985.2160p.WEB-DL.DTS-HD.MA.5.1.HEVC-AjA – 23.30GB (ONLY VIP)

NFO

A.View.to.a.Kill.1985.2160p.WEB-DL.DTS-HD.MA.5.1.HEVC-AjA

General
Unique ID : 313976692993744136957520902993414834032 (0xEC35B6240DB3301840E299FB12C1C770)
Complete name : A.View.to.a.Kill.1985.2160p.WEB-DL.DTS-HD.MA.5.1.HEVC-AjA.mkv
Format : Matroska
Format version : Version 4
File size : 23.3 GiB
Duration : 2 h 11 min
Overall bit rate mode : Variable
Overall bit rate : 25.4 Mb/s
Movie name : A View to a Kill (1985)
Encoded date : UTC 2022-05-06 02:07:51
Writing application : mkvmerge v66.0.0 (‘Josie’) 64-bit
Writing library : libebml v1.4.2 + libmatroska v1.6.4

Video
ID : 1
Format : HEVC
Format/Info : High Efficiency Video Coding
Format profile : Main [email protected]@High
Codec ID : V_MPEGH/ISO/HEVC
Duration : 2 h 11 min
Bit rate : 20.7 Mb/s
Width : 3 840 pixels
Height : 1 622 pixels
Display aspect ratio : 2.35:1
Frame rate mode : Constant
Frame rate : 23.976 (23976/1000) FPS
Color space : YUV
Chroma subsampling : 4:2:0
Bit depth : 10 bits
Bits/(Pixel*Frame) : 0.138
Stream size : 19.0 GiB (81%)
Default : Yes
Forced : No
Color range : Limited
Color primaries : BT.709
Transfer characteristics : BT.709
Matrix coefficients : BT.709

Audio #1
ID : 2
Format : DTS XLL
Format/Info : Digital Theater Systems
Commercial name : DTS-HD Master Audio
Codec ID : A_DTS
Duration : 2 h 11 min
Bit rate mode : Variable
Bit rate : 4 315 kb/s
Channel(s) : 6 channels
Channel layout : C L R Ls Rs LFE
Sampling rate : 48.0 kHz
Frame rate : 93.750 FPS (512 SPF)
Bit depth : 24 bits
Compression mode : Lossless
Delay relative to video : 5 s 45 ms
Stream size : 3.96 GiB (17%)
Language : English
Default : Yes
Forced : No

Audio #2
ID : 3
Format : AC-3
Format/Info : Audio Coding 3
Commercial name : Dolby Digital
Codec ID : A_AC3
Duration : 2 h 11 min
Bit rate mode : Constant
Bit rate : 384 kb/s
Channel(s) : 6 channels
Channel layout : L R C LFE Ls Rs
Sampling rate : 48.0 kHz
Frame rate : 31.250 FPS (1536 SPF)
Compression mode : Lossy
Stream size : 361 MiB (2%)
Title : British
Language : English
Service kind : Complete Main
Default : Yes
Forced : No

Text #1
ID : 4
Format : UTF-8
Codec ID : S_TEXT/UTF8
Codec ID/Info : UTF-8 Plain Text
Duration : 2 h 3 min
Bit rate : 36 b/s
Count of elements : 877
Stream size : 32.8 KiB (0%)
Language : English
Default : No
Forced : No

Text #2
ID : 5
Format : UTF-8
Codec ID : S_TEXT/UTF8
Codec ID/Info : UTF-8 Plain Text
Duration : 2 h 10 min
Bit rate : 38 b/s
Count of elements : 1031
Stream size : 36.7 KiB (0%)
Title : Latin American
Language : Spanish
Default : No
Forced : No

Text #3
ID : 6
Format : UTF-8
Codec ID : S_TEXT/UTF8
Codec ID/Info : UTF-8 Plain Text
Duration : 2 h 8 min
Bit rate : 37 b/s
Count of elements : 892
Stream size : 35.0 KiB (0%)
Language : French
Default : No
Forced : No

Text #4
ID : 7
Format : UTF-8
Codec ID : S_TEXT/UTF8
Codec ID/Info : UTF-8 Plain Text
Duration : 2 h 10 min
Bit rate : 33 b/s
Count of elements : 1020
Stream size : 32.1 KiB (0%)
Title : Brazilian
Language : Portuguese
Default : No
Forced : No

Menu
00:00:05.045 : :Opening Sequence
00:06:20.712 : :Main Titles
00:09:45.041 : :Chip for Chip
00:12:50.685 : :To Each His Race
00:15:28.926 : :Butterfly in the Soup
00:18:06.834 : :Follow That Parachute
00:22:10.619 : :Horse Trade
00:25:33.989 : :A Successful Cover
00:29:15.669 : :Digging and Poking
00:35:47.977 : :Stablevator
00:39:18.730 : :All Wrapped Up
00:40:47.360 : :A Roll on the Mat
00:41:55.928 : :Back in Bed
00:44:06.893 : :”Stamina or Speed?”
00:47:23.756 : :To Inferno and Back
00:52:28.102 : :A Breath of Fresh Air
00:54:20.672 : :”No One Ever Leaves”
00:55:57.728 : :Market Analysis
00:58:45.395 : :Psycho Steriod Baby
01:02:03.426 : :Propeller Jam
01:06:52.048 : :Beautiful DTente
01:12:59.832 : :Salt Shooter
01:17:18.799 : :Sutton’s Resolve
01:21:13.325 : :Fact-Finding
01:24:15.257 : :Meeting at City Hall
01:33:26.099 : :Fire Engine Safety
01:39:22.163 : :She’s A Miner!
01:42:11.290 : :All Zorin’s Faults
01:47:00.788 : :What’s Mine Is His
01:53:27.549 : :May Dry!
01:59:32.705 : :Golden Gate Blimp
02:08:44.840 : :End Credits

 

(He/Him) He's BvSRips. I dedicate myself to sharing files on this blog for free. But it is difficult to maintain the links online for a long time, they are denounced and deleted, reuploading costs more work, that is why a section for VIP users was created, where they can download all the files published 100% in MEGA, as premium, without spend more. I would greatly appreciate your collaboration so that this blog remains online for a longer time.

BUY VIP HERE

Leave a Reply

Your email address will not be published. Required fields are marked *