A Quiet Place Part II (2020) | 720p & 1080p & 2160p BluRay x265-BvS

Following the events at home, the Abbott family now face the terrors of the outside world. Forced to venture into the unknown, they realize the creatures that hunt by sound are not the only threats lurking beyond the sand path.

Links: iMDB | Trailer

Note: In English with English/Spanish/French/Portuguese Selectable Subtitles

DOWNLOAD

VIP

This content is reserved for registered users. BUY A VIP MEMBERSHIP HERE and login to be able to see it.

FREE

  • A.Quiet.Place.Part.II.2020.1080p.nf.webrip.x265-BvS – 1.13GB
  • A.Quiet.Place.Part.II.2020.2160p.WEB-DL.DDP5.1.Atmos.HDR.HEVC-CMRG – 10.20GB (ONLY VIP)
  • A.Quiet.Place.Part.II.2020.REPACK.UHD.BluRay.2160p.TrueHD.Atmos.7.1.DV.HEVC.REMUX-FraMeSToR – 45.20GB (ONLY VIP)

NFO

A.Quiet.Place.Part.II.2020.REPACK.UHD.BluRay.2160p.TrueHD.Atmos.7.1.DV.HEVC.REMUX-FraMeSToR

General
Unique ID : 217130856815225786061677734861892025358 (0xA359E1C4238635A31AFAD443A20CFC0E)
Complete name : A.Quiet.Place.Part.II.2020.REPACK.UHD.BluRay.2160p.TrueHD.Atmos.7.1.DV.HEVC.REMUX-FraMeSToR.mkv
Format : Matroska
Format version : Version 4
File size : 45.8 GiB
Duration : 1 h 37 min
Overall bit rate mode : Variable
Overall bit rate : 67.6 Mb/s
Movie name : A Quiet Place Part II 4K
Encoded date : UTC 2021-07-21 13:57:04
Writing application : mkvmerge v55.0.0 (‘Waiting For Space’) 64-bit
Writing library : libebml v1.4.2 + libmatroska v1.6.4
IMDB : tt8332922
TMDB : movie/520763

Video
ID : 1
ID in the original source medium : 4113 (0x1011)
Format : HEVC
Format/Info : High Efficiency Video Coding
Format profile : Main [email protected][email protected]
HDR format : SMPTE ST 2086, HDR10 compatible
Codec ID : V_MPEGH/ISO/HEVC
Duration : 1 h 37 min
Bit rate : 62.4 Mb/s
Width : 3 840 pixels
Height : 2 160 pixels
Display aspect ratio : 16:9
Frame rate mode : Constant
Frame rate : 23.976 (24000/1001) FPS
Color space : YUV
Chroma subsampling : 4:2:0 (Type 2)
Bit depth : 10 bits
Bits/(Pixel*Frame) : 0.314
Stream size : 42.3 GiB (92%)
Default : Yes
Forced : No
Color range : Limited
Color primaries : BT.2020
Transfer characteristics : PQ
Matrix coefficients : BT.2020 non-constant
Mastering display color primaries : Display P3
Mastering display luminance : min: 0.0050 cd/m2, max: 4000 cd/m2
Maximum Content Light Level : 1000 cd/m2
Maximum Frame-Average Light Level : 216 cd/m2
Original source medium : Blu-ray

Audio #1
ID : 2
Format : MLP FBA 16-ch
Format/Info : Meridian Lossless Packing FBA with 16-channel presentation
Commercial name : Dolby TrueHD with Dolby Atmos
Codec ID : A_TRUEHD
Duration : 1 h 37 min
Bit rate mode : Variable
Bit rate : 4 224 kb/s
Maximum bit rate : 7 821 kb/s
Channel(s) : 8 channels
Channel layout : L R C LFE Ls Rs Lb Rb
Sampling rate : 48.0 kHz
Frame rate : 1 200.000 FPS (40 SPF)
Compression mode : Lossless
Stream size : 2.86 GiB (6%)
Title : TrueHD Atmos 7.1
Language : English
Default : Yes
Forced : No
Number of dynamic objects : 11
Bed channel count : 1 channel
Bed channel configuration : LFE

Audio #2
ID : 3
Format : AC-3
Format/Info : Audio Coding 3
Commercial name : Dolby Digital
Codec ID : A_AC3
Duration : 1 h 37 min
Bit rate mode : Constant
Bit rate : 640 kb/s
Channel(s) : 6 channels
Channel layout : L R C LFE Ls Rs
Sampling rate : 48.0 kHz
Frame rate : 31.250 FPS (1536 SPF)
Compression mode : Lossy
Stream size : 444 MiB (1%)
Title : AC-3 5.1
Language : English
Service kind : Complete Main
Default : No
Forced : No

Text #1
ID : 4
Format : PGS
Codec ID : S_HDMV/PGS
Codec ID/Info : Picture based subtitle format used on BDs/HD-DVDs
Duration : 47 min 28 s
Bit rate : 1 745 b/s
Count of elements : 174
Stream size : 607 KiB (0%)
Title : English (Forced for Sign Language)
Language : English
Default : Yes
Forced : Yes

Text #2
ID : 5
Format : PGS
Codec ID : S_HDMV/PGS
Codec ID/Info : Picture based subtitle format used on BDs/HD-DVDs
Duration : 1 h 18 min
Bit rate : 8 717 b/s
Count of elements : 673
Stream size : 4.87 MiB (0%)
Title : English
Language : English
Default : No
Forced : No

Text #3
ID : 6
Format : PGS
Codec ID : S_HDMV/PGS
Codec ID/Info : Picture based subtitle format used on BDs/HD-DVDs
Duration : 1 h 26 min
Bit rate : 13.0 kb/s
Count of elements : 1153
Stream size : 8.08 MiB (0%)
Title : English (SDH)
Language : English
Default : No
Forced : No

Text #4
ID : 7
Format : PGS
Codec ID : S_HDMV/PGS
Codec ID/Info : Picture based subtitle format used on BDs/HD-DVDs
Duration : 1 h 35 min
Bit rate : 5 848 b/s
Count of elements : 679
Stream size : 4.00 MiB (0%)
Title : Chinese (Cantonese)
Language : Chinese
Default : No
Forced : No

Text #5
ID : 8
Format : PGS
Codec ID : S_HDMV/PGS
Codec ID/Info : Picture based subtitle format used on BDs/HD-DVDs
Duration : 1 h 35 min
Bit rate : 5 888 b/s
Count of elements : 677
Stream size : 4.03 MiB (0%)
Title : Chinese (Traditional)
Language : Chinese
Default : No
Forced : No

Text #6
ID : 9
Format : PGS
Codec ID : S_HDMV/PGS
Codec ID/Info : Picture based subtitle format used on BDs/HD-DVDs
Duration : 1 h 35 min
Bit rate : 6 432 b/s
Count of elements : 671
Stream size : 4.40 MiB (0%)
Title : Czech
Language : Czech
Default : No
Forced : No

Text #7
ID : 10
Format : PGS
Codec ID : S_HDMV/PGS
Codec ID/Info : Picture based subtitle format used on BDs/HD-DVDs
Duration : 1 h 35 min
Bit rate : 6 277 b/s
Count of elements : 641
Stream size : 4.30 MiB (0%)
Title : Danish
Language : Danish
Default : No
Forced : No

Text #8
ID : 11
Format : PGS
Codec ID : S_HDMV/PGS
Codec ID/Info : Picture based subtitle format used on BDs/HD-DVDs
Duration : 1 h 35 min
Bit rate : 6 357 b/s
Count of elements : 633
Stream size : 4.35 MiB (0%)
Title : Dutch
Language : Dutch
Default : No
Forced : No

Text #9
ID : 12
Format : PGS
Codec ID : S_HDMV/PGS
Codec ID/Info : Picture based subtitle format used on BDs/HD-DVDs
Duration : 1 h 35 min
Bit rate : 7 442 b/s
Count of elements : 683
Stream size : 5.09 MiB (0%)
Title : Finnish
Language : Finnish
Default : No
Forced : No

Text #10
ID : 13
Format : PGS
Codec ID : S_HDMV/PGS
Codec ID/Info : Picture based subtitle format used on BDs/HD-DVDs
Duration : 1 h 35 min
Bit rate : 7 100 b/s
Count of elements : 681
Stream size : 4.86 MiB (0%)
Title : French (Canadian)
Language : French
Default : No
Forced : No

Text #11
ID : 14
Format : PGS
Codec ID : S_HDMV/PGS
Codec ID/Info : Picture based subtitle format used on BDs/HD-DVDs
Duration : 1 h 35 min
Bit rate : 6 123 b/s
Count of elements : 615
Stream size : 4.19 MiB (0%)
Title : French (Parisian)
Language : French
Default : No
Forced : No

Text #12
ID : 15
Format : PGS
Codec ID : S_HDMV/PGS
Codec ID/Info : Picture based subtitle format used on BDs/HD-DVDs
Duration : 1 h 35 min
Bit rate : 7 201 b/s
Count of elements : 659
Stream size : 4.93 MiB (0%)
Title : German
Language : German
Default : No
Forced : No

Text #13
ID : 16
Format : PGS
Codec ID : S_HDMV/PGS
Codec ID/Info : Picture based subtitle format used on BDs/HD-DVDs
Duration : 1 h 35 min
Bit rate : 7 075 b/s
Count of elements : 667
Stream size : 4.84 MiB (0%)
Title : Greek
Language : Greek
Default : No
Forced : No

Text #14
ID : 17
Format : PGS
Codec ID : S_HDMV/PGS
Codec ID/Info : Picture based subtitle format used on BDs/HD-DVDs
Duration : 1 h 35 min
Bit rate : 7 220 b/s
Count of elements : 687
Stream size : 4.94 MiB (0%)
Title : Hungarian
Language : Hungarian
Default : No
Forced : No

Text #15
ID : 18
Format : PGS
Codec ID : S_HDMV/PGS
Codec ID/Info : Picture based subtitle format used on BDs/HD-DVDs
Duration : 1 h 35 min
Bit rate : 7 124 b/s
Count of elements : 675
Stream size : 4.88 MiB (0%)
Title : Italian
Language : Italian
Default : No
Forced : No

Text #16
ID : 19
Format : PGS
Codec ID : S_HDMV/PGS
Codec ID/Info : Picture based subtitle format used on BDs/HD-DVDs
Duration : 1 h 19 min
Bit rate : 7 213 b/s
Count of elements : 690
Stream size : 4.09 MiB (0%)
Title : Japanese
Language : Japanese
Default : No
Forced : No

Text #17
ID : 20
Format : PGS
Codec ID : S_HDMV/PGS
Codec ID/Info : Picture based subtitle format used on BDs/HD-DVDs
Duration : 1 h 35 min
Bit rate : 5 703 b/s
Count of elements : 689
Stream size : 3.90 MiB (0%)
Title : Korean
Language : Korean
Default : No
Forced : No

Text #18
ID : 21
Format : PGS
Codec ID : S_HDMV/PGS
Codec ID/Info : Picture based subtitle format used on BDs/HD-DVDs
Duration : 1 h 35 min
Bit rate : 7 925 b/s
Count of elements : 683
Stream size : 5.42 MiB (0%)
Title : Malay
Language : Malay
Default : No
Forced : No

Text #19
ID : 22
Format : PGS
Codec ID : S_HDMV/PGS
Codec ID/Info : Picture based subtitle format used on BDs/HD-DVDs
Duration : 1 h 35 min
Bit rate : 6 491 b/s
Count of elements : 683
Stream size : 4.44 MiB (0%)
Title : Norwegian
Language : Norwegian
Default : No
Forced : No

Text #20
ID : 23
Format : PGS
Codec ID : S_HDMV/PGS
Codec ID/Info : Picture based subtitle format used on BDs/HD-DVDs
Duration : 1 h 35 min
Bit rate : 6 835 b/s
Count of elements : 671
Stream size : 4.68 MiB (0%)
Title : Polish
Language : Polish
Default : No
Forced : No

Text #21
ID : 24
Format : PGS
Codec ID : S_HDMV/PGS
Codec ID/Info : Picture based subtitle format used on BDs/HD-DVDs
Duration : 1 h 35 min
Bit rate : 6 158 b/s
Count of elements : 698
Stream size : 4.21 MiB (0%)
Title : Portuguese (Brazilian)
Language : Portuguese
Default : No
Forced : No

Text #22
ID : 25
Format : PGS
Codec ID : S_HDMV/PGS
Codec ID/Info : Picture based subtitle format used on BDs/HD-DVDs
Duration : 1 h 35 min
Bit rate : 6 918 b/s
Count of elements : 663
Stream size : 4.73 MiB (0%)
Title : Portuguese (Iberian)
Language : Portuguese
Default : No
Forced : No

Text #23
ID : 26
Format : PGS
Codec ID : S_HDMV/PGS
Codec ID/Info : Picture based subtitle format used on BDs/HD-DVDs
Duration : 1 h 35 min
Bit rate : 6 359 b/s
Count of elements : 665
Stream size : 4.35 MiB (0%)
Title : Romanian
Language : Romanian
Default : No
Forced : No

Text #24
ID : 27
Format : PGS
Codec ID : S_HDMV/PGS
Codec ID/Info : Picture based subtitle format used on BDs/HD-DVDs
Duration : 1 h 35 min
Bit rate : 7 031 b/s
Count of elements : 677
Stream size : 4.81 MiB (0%)
Title : Spanish (Castilian)
Language : Spanish
Default : No
Forced : No

Text #25
ID : 28
Format : PGS
Codec ID : S_HDMV/PGS
Codec ID/Info : Picture based subtitle format used on BDs/HD-DVDs
Duration : 1 h 35 min
Bit rate : 6 774 b/s
Count of elements : 665
Stream size : 4.64 MiB (0%)
Title : Spanish (Latin American)
Language : Spanish
Default : No
Forced : No

Text #26
ID : 29
Format : PGS
Codec ID : S_HDMV/PGS
Codec ID/Info : Picture based subtitle format used on BDs/HD-DVDs
Duration : 1 h 35 min
Bit rate : 7 108 b/s
Count of elements : 673
Stream size : 4.86 MiB (0%)
Title : Swedish
Language : Swedish
Default : No
Forced : No

Text #27
ID : 30
Format : PGS
Codec ID : S_HDMV/PGS
Codec ID/Info : Picture based subtitle format used on BDs/HD-DVDs
Duration : 1 h 35 min
Bit rate : 5 559 b/s
Count of elements : 671
Stream size : 3.80 MiB (0%)
Title : Thai
Language : Thai
Default : No
Forced : No

Text #28
ID : 31
Format : PGS
Codec ID : S_HDMV/PGS
Codec ID/Info : Picture based subtitle format used on BDs/HD-DVDs
Duration : 1 h 35 min
Bit rate : 6 615 b/s
Count of elements : 688
Stream size : 4.53 MiB (0%)
Title : Turkish
Language : Turkish
Default : No
Forced : No

Menu
00:00:00.000 : en:Chapter 1
00:06:39.190 : en:Chapter 2
00:12:16.319 : en:Chapter 3
00:17:00.269 : en:Chapter 4
00:26:28.170 : en:Chapter 5
00:33:26.338 : en:Chapter 6
00:38:06.701 : en:Chapter 7
00:45:53.751 : en:Chapter 8
00:51:18.033 : en:Chapter 9
00:55:35.916 : en:Chapter 10
01:02:21.279 : en:Chapter 11
01:08:43.828 : en:Chapter 12
01:16:31.921 : en:Chapter 13
01:21:25.881 : en:Chapter 14
01:28:12.996 : en:Chapter 15

1080p.x265-BvS

General
Unique ID : 101882001945903546685568420688665979243 (0x4CA5C2847E0D40D776E5810C15BF296B)
Complete name : A.Quiet.Place.Part.II.2020.1080p.nf.webrip.x265-BvS.mkv
Format : Matroska
Format version : Version 4
File size : 1.14 GiB
Duration : 1 h 37 min
Overall bit rate : 1 677 kb/s
Movie name : BvSRips
Encoded date : UTC 2021-06-28 00:55:27
Writing application : mkvmerge v51.0.0 (‘I Wish’) 64-bit
Writing library : libebml v1.4.0 + libmatroska v1.6.2

Video
ID : 1
Format : HEVC
Format/Info : High Efficiency Video Coding
Format profile : [email protected]@Main
Codec ID : V_MPEGH/ISO/HEVC
Duration : 1 h 37 min
Bit rate : 1 419 kb/s
Width : 1 916 pixels
Height : 798 pixels
Display aspect ratio : 2.40:1
Frame rate mode : Constant
Frame rate : 23.976 (24000/1001) FPS
Color space : YUV
Chroma subsampling : 4:2:0
Bit depth : 8 bits
Bits/(Pixel*Frame) : 0.039
Stream size : 985 MiB (85%)
Writing library : x265 3.2.1+1-b5c86a64bbbe:[Windows][GCC 9.2.0][64 bit] 8bit+10bit+12bit
Encoding settings : cpuid=1111039 / frame-threads=4 / numa-pools=16 / wpp / no-pmode / no-pme / psnr / no-ssim / log-level=2 / input-csp=1 / input-res=1916×798 / interlace=0 / total-frames=0 / level-idc=0 / high-tier=1 / uhd-bd=0 / ref=2 / no-allow-non-conformance / no-repeat-headers / annexb / no-aud / no-hrd / info / hash=0 / no-temporal-layers / open-gop / min-keyint=24 / keyint=240 / gop-lookahead=0 / bframes=4 / b-adapt=0 / b-pyramid / bframe-bias=0 / rc-lookahead=15 / lookahead-slices=5 / scenecut=40 / radl=0 / no-splice / no-intra-refresh / ctu=64 / min-cu-size=8 / no-rect / no-amp / max-tu-size=32 / tu-inter-depth=1 / tu-intra-depth=1 / limit-tu=0 / rdoq-level=0 / dynamic-rd=0.00 / no-ssim-rd / signhide / no-tskip / nr-intra=0 / nr-inter=0 / no-constrained-intra / strong-intra-smoothing / max-merge=2 / limit-refs=3 / no-limit-modes / me=1 / subme=2 / merange=57 / temporal-mvp / no-hme / weightp / no-weightb / no-analyze-src-pics / deblock=0:0 / sao / no-sao-non-deblock / rd=2 / selective-sao=4 / early-skip / rskip / fast-intra / no-tskip-fast / no-cu-lossless / no-b-intra / no-splitrd-skip / rdpenalty=0 / psy-rd=0.00 / psy-rdoq=0.00 / no-rd-refine / no-lossless / cbqpoffs=0 / crqpoffs=0 / rc=crf / crf=22.0 / qcomp=0.60 / qpstep=4 / stats-write=0 / stats-read=0 / ipratio=1.40 / pbratio=1.30 / aq-mode=2 / aq-strength=0.00 / cutree / zone-count=0 / no-strict-cbr / qg-size=32 / no-rc-grain / qpmax=69 / qpmin=0 / no-const-vbv / sar=1 / overscan=0 / videoformat=5 / range=0 / colorprim=1 / transfer=1 / colormatrix=1 / chromaloc=0 / display-window=0 / cll=0,0 / min-luma=0 / max-luma=255 / log2-max-poc-lsb=8 / vui-timing-info / vui-hrd-info / slices=1 / no-opt-qp-pps / no-opt-ref-list-length-pps / no-multi-pass-opt-rps / scenecut-bias=0.05 / no-opt-cu-delta-qp / no-aq-motion / no-hdr / no-hdr-opt / no-dhdr10-opt / no-idr-recovery-sei / analysis-reuse-level=5 / scale-factor=0 / refine-intra=0 / refine-inter=0 / refine-mv=1 / refine-ctu-distortion=0 / no-limit-sao / ctu-info=0 / no-lowpass-dct / refine-analysis-type=0 / copy-pic=1 / max-ausize-factor=1.0 / no-dynamic-refine / no-single-sei / no-hevc-aq / no-svt / no-field / qp-adaptation-range=1.00
Default : Yes
Forced : No
Color range : Limited
Color primaries : BT.709
Transfer characteristics : BT.709
Matrix coefficients : BT.709

Audio
ID : 2
Format : AAC LC SBR
Format/Info : Advanced Audio Codec Low Complexity with Spectral Band Replication
Commercial name : HE-AAC
Format settings : NBC
Codec ID : A_AAC-5
Duration : 1 h 37 min
Bit rate : 256 kb/s
Channel(s) : 6 channels
Channel layout : C L R Ls Rs LFE
Sampling rate : 48.0 kHz
Frame rate : 23.438 FPS (2048 SPF)
Compression mode : Lossy
Delay relative to video : -105 ms
Stream size : 178 MiB (15%)
Language : English
Default : Yes
Forced : No

Text
ID : 3
Format : ASS
Codec ID : S_TEXT/ASS
Codec ID/Info : Advanced Sub Station Alpha
Duration : 4 s 500 ms
Bit rate : 149 b/s
Count of elements : 1
Compression mode : Lossless
Stream size : 84.0 Bytes (0%)
Default : Yes
Forced : No

2160p.WEB-DL.DDP5.1.Atmos.HDR.HEVC-CMRG

General
Unique ID : 92499760394367186801039040672635952657 (0x4596CE4B7A94F03790BFB13E4F661E11)
Complete name : A.Quiet.Place.Part.II.2020.2160p.WEB-DL.DDP5.1.Atmos.HDR.HEVC-CMRG.mkv
Format : Matroska
Format version : Version 4
File size : 10.3 GiB
Duration : 1 h 37 min
Overall bit rate : 15.2 Mb/s
Encoded date : UTC 2021-06-27 23:19:17
Writing application : mkvmerge v56.0.0 (‘Strasbourg / St. Denis’) 64-bit
Writing library : libebml v1.4.2 + libmatroska v1.6.4

Video
ID : 1
Format : HEVC
Format/Info : High Efficiency Video Coding
Format profile : Main [email protected]@High
HDR format : SMPTE ST 2086, HDR10 compatible
Codec ID : V_MPEGH/ISO/HEVC
Duration : 1 h 37 min
Bit rate : 14.4 Mb/s
Width : 3 840 pixels
Height : 1 606 pixels
Display aspect ratio : 2.40:1
Frame rate mode : Constant
Frame rate : 23.976 (24000/1001) FPS
Color space : YUV
Chroma subsampling : 4:2:0 (Type 2)
Bit depth : 10 bits
Bits/(Pixel*Frame) : 0.097
Stream size : 9.76 GiB (95%)
Default : Yes
Forced : No
Color range : Limited
Color primaries : BT.2020
Transfer characteristics : PQ
Matrix coefficients : BT.2020 non-constant
Mastering display color primaries : Display P3
Mastering display luminance : min: 0.0050 cd/m2, max: 1000 cd/m2
Maximum Content Light Level : 1450 cd/m2
Maximum Frame-Average Light Level : 278 cd/m2

Audio
ID : 2
Format : E-AC-3 JOC
Format/Info : Enhanced AC-3 with Joint Object Coding
Commercial name : Dolby Digital Plus with Dolby Atmos
Codec ID : A_EAC3
Duration : 1 h 37 min
Bit rate mode : Constant
Bit rate : 768 kb/s
Channel(s) : 6 channels
Channel layout : L R C LFE Ls Rs
Sampling rate : 48.0 kHz
Frame rate : 31.250 FPS (1536 SPF)
Compression mode : Lossy
Stream size : 533 MiB (5%)
Title : English
Language : English
Service kind : Complete Main
Default : Yes
Forced : No
Complexity index : 16
Number of dynamic objects : 15
Bed channel count : 1 channel
Bed channel configuration : LFE

Text #1
ID : 3
Format : UTF-8
Codec ID : S_TEXT/UTF8
Codec ID/Info : UTF-8 Plain Text
Duration : 47 min 28 s
Bit rate : 3 b/s
Count of elements : 69
Stream size : 1.26 KiB (0%)
Title : English [Forced] Language : English
Default : No
Forced : Yes

Text #2
ID : 4
Format : UTF-8
Codec ID : S_TEXT/UTF8
Codec ID/Info : UTF-8 Plain Text
Duration : 1 h 35 min
Bit rate : 10 b/s
Count of elements : 329
Stream size : 7.61 KiB (0%)
Title : European Spanish
Language : Spanish
Default : No
Forced : No

Text #3
ID : 5
Format : UTF-8
Codec ID : S_TEXT/UTF8
Codec ID/Info : UTF-8 Plain Text
Duration : 1 h 35 min
Bit rate : 9 b/s
Count of elements : 299
Stream size : 6.95 KiB (0%)
Title : French
Language : French
Default : No
Forced : No

Text #4
ID : 6
Format : UTF-8
Codec ID : S_TEXT/UTF8
Codec ID/Info : UTF-8 Plain Text
Duration : 1 h 35 min
Bit rate : 10 b/s
Count of elements : 322
Stream size : 7.49 KiB (0%)
Title : Portuguese
Language : Portuguese
Default : No
Forced : No

Text #5
ID : 7
Format : UTF-8
Codec ID : S_TEXT/UTF8
Codec ID/Info : UTF-8 Plain Text
Duration : 1 h 35 min
Bit rate : 10 b/s
Count of elements : 326
Stream size : 7.49 KiB (0%)
Title : Polish
Language : Polish
Default : No
Forced : No

Text #6
ID : 8
Format : UTF-8
Codec ID : S_TEXT/UTF8
Codec ID/Info : UTF-8 Plain Text
Duration : 1 h 35 min
Bit rate : 11 b/s
Count of elements : 331
Stream size : 7.90 KiB (0%)
Title : Turkish
Language : Turkish
Default : No
Forced : No

Text #7
ID : 9
Format : UTF-8
Codec ID : S_TEXT/UTF8
Codec ID/Info : UTF-8 Plain Text
Duration : 1 h 35 min
Bit rate : 11 b/s
Count of elements : 328
Stream size : 7.97 KiB (0%)
Title : Swedish
Language : Swedish
Default : No
Forced : No

Text #8
ID : 10
Format : UTF-8
Codec ID : S_TEXT/UTF8
Codec ID/Info : UTF-8 Plain Text
Duration : 1 h 35 min
Bit rate : 9 b/s
Count of elements : 311
Stream size : 6.89 KiB (0%)
Title : Danish
Language : Danish
Default : No
Forced : No

Text #9
ID : 11
Format : UTF-8
Codec ID : S_TEXT/UTF8
Codec ID/Info : UTF-8 Plain Text
Duration : 1 h 35 min
Bit rate : 11 b/s
Count of elements : 333
Stream size : 8.05 KiB (0%)
Title : Finnish
Language : Finnish
Default : No
Forced : No

Text #10
ID : 12
Format : UTF-8
Codec ID : S_TEXT/UTF8
Codec ID/Info : UTF-8 Plain Text
Duration : 1 h 35 min
Bit rate : 10 b/s
Count of elements : 333
Stream size : 7.12 KiB (0%)
Title : Norwegian
Language : Norwegian
Default : No
Forced : No

Text #11
ID : 13
Format : UTF-8
Codec ID : S_TEXT/UTF8
Codec ID/Info : UTF-8 Plain Text
Duration : 1 h 35 min
Bit rate : 17 b/s
Count of elements : 331
Stream size : 12.4 KiB (0%)
Title : Russian
Language : Russian
Default : No
Forced : No

Text #12
ID : 14
Format : UTF-8
Codec ID : S_TEXT/UTF8
Codec ID/Info : UTF-8 Plain Text
Duration : 1 h 35 min
Bit rate : 17 b/s
Count of elements : 339
Stream size : 12.4 KiB (0%)
Title : Ukrainian
Language : Ukrainian
Default : No
Forced : No

Text #13
ID : 15
Format : UTF-8
Codec ID : S_TEXT/UTF8
Codec ID/Info : UTF-8 Plain Text
Duration : 1 h 35 min
Bit rate : 10 b/s
Count of elements : 334
Stream size : 7.69 KiB (0%)
Title : Hungarian
Language : Hungarian
Default : No
Forced : No

Text #14
ID : 16
Format : UTF-8
Codec ID : S_TEXT/UTF8
Codec ID/Info : UTF-8 Plain Text
Duration : 1 h 35 min
Bit rate : 17 b/s
Count of elements : 324
Stream size : 12.5 KiB (0%)
Title : Greek
Language : Greek
Default : No
Forced : No

Text #15
ID : 17
Format : UTF-8
Codec ID : S_TEXT/UTF8
Codec ID/Info : UTF-8 Plain Text
Duration : 1 h 35 min
Bit rate : 14 b/s
Count of elements : 336
Stream size : 10.2 KiB (0%)
Title : Hebrew
Language : Hebrew
Default : No
Forced : No

Text #16
ID : 18
Format : UTF-8
Codec ID : S_TEXT/UTF8
Codec ID/Info : UTF-8 Plain Text
Duration : 1 h 35 min
Bit rate : 15 b/s
Count of elements : 335
Stream size : 10.9 KiB (0%)
Title : Arabic
Language : Arabic
Default : No
Forced : No

Text #17
ID : 19
Format : UTF-8
Codec ID : S_TEXT/UTF8
Codec ID/Info : UTF-8 Plain Text
Duration : 1 h 35 min
Bit rate : 10 b/s
Count of elements : 326
Stream size : 7.32 KiB (0%)
Title : Czech
Language : Czech
Default : No
Forced : No

Text #18
ID : 20
Format : UTF-8
Codec ID : S_TEXT/UTF8
Codec ID/Info : UTF-8 Plain Text
Duration : 1 h 35 min
Bit rate : 10 b/s
Count of elements : 325
Stream size : 7.57 KiB (0%)
Title : Indonesian
Language : Indonesian
Default : No
Forced : No

Text #19
ID : 21
Format : UTF-8
Codec ID : S_TEXT/UTF8
Codec ID/Info : UTF-8 Plain Text
Duration : 1 h 35 min
Bit rate : 11 b/s
Count of elements : 333
Stream size : 7.90 KiB (0%)
Title : Malay
Language : Malay
Default : No
Forced : No

Text #20
ID : 22
Format : UTF-8
Codec ID : S_TEXT/UTF8
Codec ID/Info : UTF-8 Plain Text
Duration : 1 h 35 min
Bit rate : 14 b/s
Count of elements : 329
Stream size : 9.98 KiB (0%)
Title : Vietnamese
Language : Vietnamese
Default : No
Forced : No

Text #21
ID : 23
Format : UTF-8
Codec ID : S_TEXT/UTF8
Codec ID/Info : UTF-8 Plain Text
Duration : 1 h 35 min
Bit rate : 10 b/s
Count of elements : 331
Stream size : 7.02 KiB (0%)
Title : Cantonese
Language : Chinese
Default : No
Forced : No

Text #22
ID : 24
Format : UTF-8
Codec ID : S_TEXT/UTF8
Codec ID/Info : UTF-8 Plain Text
Duration : 1 h 35 min
Bit rate : 11 b/s
Count of elements : 331
Stream size : 7.76 KiB (0%)
Title : Chinese (Simplified)
Language : Chinese
Default : No
Forced : No

Text #23
ID : 25
Format : UTF-8
Codec ID : S_TEXT/UTF8
Codec ID/Info : UTF-8 Plain Text
Duration : 1 h 35 min
Bit rate : 9 b/s
Count of elements : 330
Stream size : 6.65 KiB (0%)
Title : Chinese (Traditional)
Language : Chinese
Default : No
Forced : No

Text #24
ID : 26
Format : UTF-8
Codec ID : S_TEXT/UTF8
Codec ID/Info : UTF-8 Plain Text
Duration : 1 h 35 min
Bit rate : 10 b/s
Count of elements : 346
Stream size : 7.52 KiB (0%)
Title : Japanese
Language : Japanese
Default : No
Forced : No

Menu
00:00:00.000 : Scene 1
00:06:39.107 : Scene 2
00:12:16.319 : Scene 3
00:17:00.270 : Scene 4
00:26:28.171 : Scene 5
00:33:26.339 : Scene 6
00:38:06.703 : Scene 7
00:45:53.753 : Scene 8
00:51:18.036 : Scene 9
00:55:35.919 : Scene 10
01:02:21.282 : Scene 11
01:08:43.832 : Scene 12
01:16:31.925 : Scene 13
01:21:25.885 : Scene 14
01:28:11.833 : Scene 15

Leave a Reply

Your email address will not be published. Required fields are marked *