A Quiet Place (2018) | 720p & 1080p & 2160p WEBRip x265-BvS

Over three months in 2020, most of Earth’s human and animal populations have been wiped out by sightless extraterrestrial creatures that originated from a meteor shower impacting Earth. The creatures, attacking anything that makes noise, have hypersensitive hearing and indestructible, armored skin.

Links: IMDB

Note: In English with English/French/German/Spanish Selectable Subtitles

DOWNLOAD

VIP (GOOGLE DRIVE)

This content is reserved for registered users. BUY A VIP MEMBERSHIP HERE and login to be able to see it.

FREE

  • A Quiet Place (2018) (2160p BluRay x265 10bit HDR Tigole) (ONLY VIP)

NFO

A Quiet Place (2018) (2160p BluRay x265 10bit HDR Tigole)

General
Unique ID : 339885018136899126504210415941601955318 (0xFFB3793141AD23FAF260A25660E38DF6)
Complete name : A Quiet Place (2018) (2160p BluRay x265 10bit HDR Tigole).mkv
Format : Matroska
Format version : Version 4
File size : 12.9 GiB
Duration : 1 h 30 min
Overall bit rate : 20.5 Mb/s
Movie name : A Quiet Place
Encoded date : UTC 2021-03-12 12:01:03
Writing application : mkvmerge v54.0.0 (‘F Maj Pixie’) 64-bit
Writing library : libebml v1.4.2 + libmatroska v1.6.3

Video
ID : 1
Format : HEVC
Format/Info : High Efficiency Video Coding
Format profile : Main [email protected]@Main
HDR format : SMPTE ST 2086, HDR10 compatible
Codec ID : V_MPEGH/ISO/HEVC
Duration : 1 h 30 min
Bit rate : 19.8 Mb/s
Width : 3 840 pixels
Height : 1 600 pixels
Display aspect ratio : 2.40:1
Frame rate mode : Constant
Frame rate : 23.976 (24000/1001) FPS
Color space : YUV
Chroma subsampling : 4:2:0
Bit depth : 10 bits
Bits/(Pixel*Frame) : 0.134
Stream size : 12.5 GiB (97%)
Writing library : x265M – 3.4+35-772bb4c84:[Windows][GCC 10.2.0][64 bit] 10bit
Encoding settings : cpuid=1111039 / frame-threads=3 / numa-pools=8 / wpp / no-pmode / no-pme / no-psnr / no-ssim / log-level=2 / input-csp=1 / input-res=3840×1600 / interlace=0 / total-frames=129826 / level-idc=0 / high-tier=1 / uhd-bd=0 / ref=4 / no-allow-non-conformance / repeat-headers / annexb / aud / no-hrd / info / hash=0 / no-temporal-layers / open-gop / min-keyint=23 / keyint=250 / gop-lookahead=0 / bframes=8 / b-adapt=2 / b-pyramid / bframe-bias=0 / rc-lookahead=25 / lookahead-slices=4 / scenecut=40 / hist-scenecut=0 / radl=0 / no-splice / no-intra-refresh / ctu=64 / min-cu-size=8 / rect / no-amp / max-tu-size=32 / tu-inter-depth=1 / tu-intra-depth=1 / limit-tu=0 / rdoq-level=2 / dynamic-rd=0.00 / no-ssim-rd / signhide / no-tskip / nr-intra=0 / nr-inter=0 / no-constrained-intra / strong-intra-smoothing / max-merge=3 / limit-refs=3 / limit-modes / me=3 / subme=3 / merange=57 / temporal-mvp / no-frame-dup / no-hme / weightp / no-weightb / no-analyze-src-pics / deblock=0:0 / no-sao / no-sao-non-deblock / rd=4 / selective-sao=0 / no-early-skip / rskip / no-fast-intra / no-tskip-fast / no-cu-lossless / no-b-intra / no-splitrd-skip / rdpenalty=0 / psy-rd=2.00 / psy-rdoq=1.00 / no-rd-refine / no-lossless / cbqpoffs=0 / crqpoffs=0 / rc=crf / crf=16.0 / qcomp=0.60 / qpstep=4 / stats-write=0 / stats-read=0 / ipratio=1.40 / pbratio=1.30 / aq-mode=2 / aq-strength=1.00 / cutree / zone-count=0 / no-strict-cbr / qg-size=32 / no-rc-grain / qpmax=69 / qpmin=0 / no-const-vbv / sar=0 / overscan=0 / videoformat=5 / range=0 / colorprim=9 / transfer=16 / colormatrix=9 / chromaloc=0 / display-window=0 / master-display=G(13250,34500)B(7500,3000)R(34000,16000)WP(15635,16450)L(10000000,1) / cll=0,0 / min-luma=0 / max-luma=1023 / log2-max-poc-lsb=8 / vui-timing-info / vui-hrd-info / slices=1 / no-opt-qp-pps / no-opt-ref-list-length-pps / no-multi-pass-opt-rps / scenecut-bias=0.05 / hist-threshold=0.03 / no-opt-cu-delta-qp / aq-motion / hdr10 / hdr10-opt / no-dhdr10-opt / no-idr-recovery-sei / analysis-reuse-level=0 / analysis-save-reuse-level=0 / analysis-load-reuse-level=0 / scale-factor=0 / refine-intra=0 / refine-inter=0 / refine-mv=1 / refine-ctu-distortion=0 / no-limit-sao / ctu-info=0 / no-lowpass-dct / refine-analysis-type=0 / copy-pic=1 / max-ausize-factor=1.0 / no-dynamic-refine / no-single-sei / no-hevc-aq / no-svt / no-field / qp-adaptation-range=1.00 / scenecut-aware-qp=0conformance-window-offsets / right=0 / bottom=0 / decoder-max-rate=0 / no-vbv-live-multi-pass
Default : Yes
Forced : No
Color range : Limited
Color primaries : BT.2020
Transfer characteristics : PQ
Matrix coefficients : BT.2020 non-constant
Mastering display color primaries : Display P3
Mastering display luminance : min: 0.0001 cd/m2, max: 1000 cd/m2

Audio
ID : 2
Format : AAC LC
Format/Info : Advanced Audio Codec Low Complexity
Codec ID : A_AAC-2
Duration : 1 h 30 min
Bit rate : 662 kb/s
Channel(s) : 8 channels
Channel layout : C L R Ls Rs Lb Rb LFE
Sampling rate : 48.0 kHz
Frame rate : 46.875 FPS (1024 SPF)
Compression mode : Lossy
Delay relative to video : 20 ms
Stream size : 419 MiB (3%)
Language : English
Default : Yes
Forced : No

Text #1
ID : 3
Format : VobSub
Muxing mode : zlib
Codec ID : S_VOBSUB
Codec ID/Info : Picture based subtitle format used on DVDs
Duration : 1 h 22 min
Bit rate : 1 474 b/s
Count of elements : 340
Stream size : 886 KiB (0%)
Language : English
Default : No
Forced : No

Text #2
ID : 4
Format : VobSub
Muxing mode : zlib
Codec ID : S_VOBSUB
Codec ID/Info : Picture based subtitle format used on DVDs
Duration : 1 h 11 min
Bit rate : 717 b/s
Count of elements : 165
Stream size : 377 KiB (0%)
Title : Forced
Language : English
Default : No
Forced : Yes

Text #3
ID : 5
Format : VobSub
Muxing mode : zlib
Codec ID : S_VOBSUB
Codec ID/Info : Picture based subtitle format used on DVDs
Duration : 1 h 29 min
Bit rate : 391 b/s
Count of elements : 184
Stream size : 257 KiB (0%)
Language : Arabic
Default : No
Forced : No

Text #4
ID : 6
Format : VobSub
Muxing mode : zlib
Codec ID : S_VOBSUB
Codec ID/Info : Picture based subtitle format used on DVDs
Duration : 1 h 29 min
Bit rate : 666 b/s
Count of elements : 188
Stream size : 437 KiB (0%)
Language : Chinese
Default : No
Forced : No

Text #5
ID : 7
Format : VobSub
Muxing mode : zlib
Codec ID : S_VOBSUB
Codec ID/Info : Picture based subtitle format used on DVDs
Duration : 1 h 29 min
Bit rate : 639 b/s
Count of elements : 182
Stream size : 419 KiB (0%)
Language : Czech
Default : No
Forced : No

Text #6
ID : 8
Format : VobSub
Muxing mode : zlib
Codec ID : S_VOBSUB
Codec ID/Info : Picture based subtitle format used on DVDs
Duration : 1 h 29 min
Bit rate : 717 b/s
Count of elements : 185
Stream size : 471 KiB (0%)
Language : Danish
Default : No
Forced : No

Text #7
ID : 9
Format : VobSub
Muxing mode : zlib
Codec ID : S_VOBSUB
Codec ID/Info : Picture based subtitle format used on DVDs
Duration : 1 h 29 min
Bit rate : 681 b/s
Count of elements : 182
Stream size : 447 KiB (0%)
Language : Dutch
Default : No
Forced : No

Text #8
ID : 10
Format : VobSub
Muxing mode : zlib
Codec ID : S_VOBSUB
Codec ID/Info : Picture based subtitle format used on DVDs
Duration : 1 h 29 min
Bit rate : 696 b/s
Count of elements : 182
Stream size : 457 KiB (0%)
Language : Finnish
Default : No
Forced : No

Text #9
ID : 11
Format : VobSub
Muxing mode : zlib
Codec ID : S_VOBSUB
Codec ID/Info : Picture based subtitle format used on DVDs
Duration : 1 h 29 min
Bit rate : 722 b/s
Count of elements : 184
Stream size : 474 KiB (0%)
Language : French
Default : No
Forced : No

Text #10
ID : 12
Format : VobSub
Muxing mode : zlib
Codec ID : S_VOBSUB
Codec ID/Info : Picture based subtitle format used on DVDs
Duration : 1 h 29 min
Bit rate : 815 b/s
Count of elements : 183
Stream size : 535 KiB (0%)
Language : German
Default : No
Forced : No

Text #11
ID : 13
Format : VobSub
Muxing mode : zlib
Codec ID : S_VOBSUB
Codec ID/Info : Picture based subtitle format used on DVDs
Duration : 1 h 19 min
Bit rate : 635 b/s
Count of elements : 131
Stream size : 372 KiB (0%)
Title : Forced
Language : German
Default : No
Forced : No

Text #12
ID : 14
Format : VobSub
Muxing mode : zlib
Codec ID : S_VOBSUB
Codec ID/Info : Picture based subtitle format used on DVDs
Duration : 1 h 29 min
Bit rate : 775 b/s
Count of elements : 180
Stream size : 509 KiB (0%)
Language : Greek
Default : No
Forced : No

Text #13
ID : 15
Format : VobSub
Muxing mode : zlib
Codec ID : S_VOBSUB
Codec ID/Info : Picture based subtitle format used on DVDs
Duration : 1 h 29 min
Bit rate : 1 041 b/s
Count of elements : 262
Stream size : 683 KiB (0%)
Language : Hindi
Default : No
Forced : No

Text #14
ID : 16
Format : VobSub
Muxing mode : zlib
Codec ID : S_VOBSUB
Codec ID/Info : Picture based subtitle format used on DVDs
Duration : 1 h 29 min
Bit rate : 692 b/s
Count of elements : 184
Stream size : 454 KiB (0%)
Language : Hungarian
Default : No
Forced : No

Text #15
ID : 17
Format : VobSub
Muxing mode : zlib
Codec ID : S_VOBSUB
Codec ID/Info : Picture based subtitle format used on DVDs
Duration : 1 h 29 min
Bit rate : 748 b/s
Count of elements : 183
Stream size : 491 KiB (0%)
Language : Icelandic
Default : No
Forced : No

Text #16
ID : 18
Format : VobSub
Muxing mode : zlib
Codec ID : S_VOBSUB
Codec ID/Info : Picture based subtitle format used on DVDs
Duration : 1 h 29 min
Bit rate : 702 b/s
Count of elements : 183
Stream size : 461 KiB (0%)
Language : Italian
Default : No
Forced : No

Text #17
ID : 19
Format : VobSub
Muxing mode : zlib
Codec ID : S_VOBSUB
Codec ID/Info : Picture based subtitle format used on DVDs
Duration : 1 h 29 min
Bit rate : 585 b/s
Count of elements : 190
Stream size : 384 KiB (0%)
Language : Korean
Default : No
Forced : No

Text #18
ID : 20
Format : VobSub
Muxing mode : zlib
Codec ID : S_VOBSUB
Codec ID/Info : Picture based subtitle format used on DVDs
Duration : 1 h 29 min
Bit rate : 801 b/s
Count of elements : 182
Stream size : 526 KiB (0%)
Language : Malay
Default : No
Forced : No

Text #19
ID : 21
Format : VobSub
Muxing mode : zlib
Codec ID : S_VOBSUB
Codec ID/Info : Picture based subtitle format used on DVDs
Duration : 1 h 29 min
Bit rate : 679 b/s
Count of elements : 186
Stream size : 446 KiB (0%)
Language : Norwegian Bokmal
Default : No
Forced : No

Text #20
ID : 22
Format : VobSub
Muxing mode : zlib
Codec ID : S_VOBSUB
Codec ID/Info : Picture based subtitle format used on DVDs
Duration : 1 h 29 min
Bit rate : 611 b/s
Count of elements : 179
Stream size : 401 KiB (0%)
Language : Polish
Default : No
Forced : No

Text #21
ID : 23
Format : VobSub
Muxing mode : zlib
Codec ID : S_VOBSUB
Codec ID/Info : Picture based subtitle format used on DVDs
Duration : 1 h 29 min
Bit rate : 643 b/s
Count of elements : 180
Stream size : 422 KiB (0%)
Language : Portuguese
Default : No
Forced : No

Text #22
ID : 24
Format : VobSub
Muxing mode : zlib
Codec ID : S_VOBSUB
Codec ID/Info : Picture based subtitle format used on DVDs
Duration : 1 h 29 min
Bit rate : 655 b/s
Count of elements : 182
Stream size : 430 KiB (0%)
Language : Romanian
Default : No
Forced : No

Text #23
ID : 25
Format : VobSub
Muxing mode : zlib
Codec ID : S_VOBSUB
Codec ID/Info : Picture based subtitle format used on DVDs
Duration : 1 h 29 min
Bit rate : 634 b/s
Count of elements : 178
Stream size : 416 KiB (0%)
Language : Russian
Default : No
Forced : No

Text #24
ID : 26
Format : VobSub
Muxing mode : zlib
Codec ID : S_VOBSUB
Codec ID/Info : Picture based subtitle format used on DVDs
Duration : 1 h 29 min
Bit rate : 608 b/s
Count of elements : 183
Stream size : 399 KiB (0%)
Language : Slovak
Default : No
Forced : No

Text #25
ID : 27
Format : VobSub
Muxing mode : zlib
Codec ID : S_VOBSUB
Codec ID/Info : Picture based subtitle format used on DVDs
Duration : 1 h 29 min
Bit rate : 703 b/s
Count of elements : 184
Stream size : 461 KiB (0%)
Language : Spanish
Default : No
Forced : No

Text #26
ID : 28
Format : VobSub
Muxing mode : zlib
Codec ID : S_VOBSUB
Codec ID/Info : Picture based subtitle format used on DVDs
Duration : 1 h 29 min
Bit rate : 705 b/s
Count of elements : 183
Stream size : 463 KiB (0%)
Language : Swedish
Default : No
Forced : No

Text #27
ID : 29
Format : VobSub
Muxing mode : zlib
Codec ID : S_VOBSUB
Codec ID/Info : Picture based subtitle format used on DVDs
Duration : 1 h 29 min
Bit rate : 555 b/s
Count of elements : 184
Stream size : 365 KiB (0%)
Language : Thai
Default : No
Forced : No

Text #28
ID : 30
Format : VobSub
Muxing mode : zlib
Codec ID : S_VOBSUB
Codec ID/Info : Picture based subtitle format used on DVDs
Duration : 1 h 29 min
Bit rate : 762 b/s
Count of elements : 188
Stream size : 500 KiB (0%)
Language : Turkish
Default : No
Forced : No

Menu
00:00:00.000 : en:Chapter 01
00:10:19.118 : en:Chapter 02
00:14:38.002 : en:Chapter 03
00:21:52.894 : en:Chapter 04
00:25:09.674 : en:Chapter 05
00:31:05.029 : en:Chapter 06
00:36:23.389 : en:Chapter 07
00:43:47.124 : en:Chapter 08
00:47:42.526 : en:Chapter 09
00:53:48.058 : en:Chapter 10
01:00:31.377 : en:Chapter 11
01:05:55.326 : en:Chapter 12
01:10:57.836 : en:Chapter 13
01:15:29.066 : en:Chapter 14
01:23:47.147 : en:Chapter 15

Leave a Reply

Your email address will not be published. Required fields are marked *