Marketa Lazarova (1967) 1080p BluRay x265 HEVC 10bit AAC 1.0 Czech Tigole [G.DRIVE]

Marketa-Lazarova-(1967)-(1080p-BluRay-x265-HEVC-10bit-AAC-1.0-Czech-Tigole)

A grim portrayal of the shift from Paganism to Christianity in medieval central Europe – as a young virgin promised to God is kidnapped and raped by a marauder who her religious father seeks to kill in return.

Links: iMDB | Trailer

Marketa Lazarova (1967) 1080p BluRay x265 HEVC 10bit AAC 1.0 Czech Tigole
MKV-HEVC | 1920×818 | CZECH | Subs.ENG/CHI | AAC 5.1 | 7.34GB

This content is reserved for registered users. Sign up here o login to be able to see it. Buy your VIP membership

MEGA – 1FICHIER

NFO

General
Unique ID : 138973915904841740040525381666794203776 (0x688D6711A513F224919E937F3BE56A80)
Complete name : Marketa Lazarova (1967) (1080p BluRay x265 10bit Tigole).mkv
Format : Matroska
Format version : Version 4
File size : 7.34 GiB
Duration : 2 h 45 min
Overall bit rate : 6 336 kb/s
Movie name : Marketa Lazarová
Encoded date : UTC 2020-11-24 05:54:22
Writing application : mkvmerge v38.0.0 (‘The Silent Type’) 64-bit
Writing library : libebml v1.3.9 + libmatroska v1.5.2

Video
ID : 1
Format : HEVC
Format/Info : High Efficiency Video Coding
Format profile : Main [email protected]@Main
Codec ID : V_MPEGH/ISO/HEVC
Duration : 2 h 45 min
Bit rate : 6 251 kb/s
Width : 1 920 pixels
Height : 818 pixels
Display aspect ratio : 2.35:1
Frame rate mode : Constant
Frame rate : 23.976 (24000/1001) FPS
Color space : YUV
Chroma subsampling : 4:2:0
Bit depth : 10 bits
Bits/(Pixel*Frame) : 0.166
Stream size : 7.24 GiB (99%)
Writing library : x265 3.2+23-52135ffd9bcd:[Windows][GCC 9.2.0][64 bit] 10bit
Encoding settings : cpuid=1111039 / frame-threads=3 / numa-pools=8 / wpp / no-pmode / no-pme / no-psnr / no-ssim / log-level=2 / input-csp=1 / input-res=1920×818 / interlace=0 / total-frames=238561 / level-idc=0 / high-tier=1 / uhd-bd=0 / ref=4 / no-allow-non-conformance / no-repeat-headers / annexb / no-aud / no-hrd / info / hash=0 / no-temporal-layers / open-gop / min-keyint=23 / keyint=250 / gop-lookahead=0 / bframes=4 / b-adapt=2 / b-pyramid / bframe-bias=0 / rc-lookahead=25 / lookahead-slices=4 / scenecut=40 / hist-scenecut=0 / radl=0 / no-splice / no-intra-refresh / ctu=64 / min-cu-size=8 / rect / no-amp / max-tu-size=32 / tu-inter-depth=1 / tu-intra-depth=1 / limit-tu=0 / rdoq-level=2 / dynamic-rd=0.00 / no-ssim-rd / signhide / no-tskip / nr-intra=0 / nr-inter=0 / no-constrained-intra / strong-intra-smoothing / max-merge=3 / limit-refs=3 / limit-modes / me=3 / subme=3 / merange=57 / temporal-mvp / no-frame-dup / no-hme / weightp / no-weightb / no-analyze-src-pics / deblock=0:0 / no-sao / no-sao-non-deblock / rd=4 / selective-sao=0 / no-early-skip / rskip / no-fast-intra / no-tskip-fast / no-cu-lossless / no-b-intra / no-splitrd-skip / rdpenalty=0 / psy-rd=2.00 / psy-rdoq=1.00 / no-rd-refine / no-lossless / cbqpoffs=0 / crqpoffs=0 / rc=abr / bitrate=6250 / qcomp=0.60 / qpstep=4 / stats-write=0 / stats-read=2 / cplxblur=20.0 / qblur=0.5 / ipratio=1.40 / pbratio=1.30 / aq-mode=4 / aq-strength=1.00 / cutree / zone-count=0 / no-strict-cbr / qg-size=32 / no-rc-grain / qpmax=69 / qpmin=0 / no-const-vbv / sar=0 / overscan=0 / videoformat=5 / range=0 / colorprim=2 / transfer=2 / colormatrix=2 / chromaloc=0 / display-window=0 / cll=0,0 / min-luma=0 / max-luma=1023 / log2-max-poc-lsb=8 / vui-timing-info / vui-hrd-info / slices=1 / no-opt-qp-pps / no-opt-ref-list-length-pps / multi-pass-opt-rps / scenecut-bias=0.05 / hist-threshold=0.01 / no-opt-cu-delta-qp / aq-motion / no-hdr / no-hdr-opt / no-dhdr10-opt / no-idr-recovery-sei / analysis-reuse-level=5 / scale-factor=0 / refine-intra=0 / refine-inter=0 / refine-mv=1 / refine-ctu-distortion=0 / no-limit-sao / ctu-info=0 / no-lowpass-dct / refine-analysis-type=0 / copy-pic=1 / max-ausize-factor=1.0 / no-dynamic-refine / no-single-sei / no-hevc-aq / no-svt / no-field / qp-adaptation-range=1.00 / no-scenecut-aware-qp
Default : Yes
Forced : No

Audio
ID : 2
Format : AAC LC
Format/Info : Advanced Audio Codec Low Complexity
Codec ID : A_AAC-2
Duration : 2 h 45 min
Bit rate : 74.5 kb/s
Channel(s) : 1 channel
Channel layout : C
Sampling rate : 48.0 kHz
Frame rate : 46.875 FPS (1024 SPF)
Compression mode : Lossy
Delay relative to video : 20 ms
Stream size : 88.4 MiB (1%)
Language : Czech
Default : Yes
Forced : No

Text #1
ID : 3
Format : VobSub
Muxing mode : zlib
Codec ID : S_VOBSUB
Codec ID/Info : Picture based subtitle format used on DVDs
Duration : 2 h 45 min
Bit rate : 7 002 b/s
Count of elements : 1546
Stream size : 8.27 MiB (0%)
Language : English
Default : Yes
Forced : No

Text #2
ID : 4
Format : VobSub
Muxing mode : zlib
Codec ID : S_VOBSUB
Codec ID/Info : Picture based subtitle format used on DVDs
Duration : 2 h 45 min
Bit rate : 4 786 b/s
Count of elements : 1555
Stream size : 5.66 MiB (0%)
Language : Chinese
Default : No
Forced : No

Menu
00:00:00.000 : en:Chapter 01
00:03:23.661 : en:Chapter 02
00:13:56.001 : en:Chapter 03
00:20:48.830 : en:Chapter 04
00:24:32.429 : en:Chapter 05
00:31:11.411 : en:Chapter 06
00:37:55.690 : en:Chapter 07
00:42:59.368 : en:Chapter 08
00:54:55.959 : en:Chapter 09
01:07:17.575 : en:Chapter 10
01:18:02.177 : en:Chapter 11
01:22:19.142 : en:Chapter 12
01:32:01.807 : en:Chapter 13
01:42:06.036 : en:Chapter 14
01:49:14.339 : en:Chapter 15
02:01:23.693 : en:Chapter 16
02:14:13.253 : en:Chapter 17
02:26:50.343 : en:Chapter 18
02:36:59.034 : en:Chapter 19

(He/Him) He's BvSRips. I dedicate myself to sharing files on this blog for free. But it is difficult to maintain the links online for a long time, they are denounced and deleted, reuploading costs more work, that is why a section for VIP users was created, where they can download all the files published 100% in MEGA, as premium, without spend more. I would greatly appreciate your collaboration so that this blog remains online for a longer time.

BUY VIP HERE

You may also like...

Leave a Reply

Your email address will not be published. Required fields are marked *