Malcolm X (1992) 1080p BluRay x265 HEVC 10bit AAC 5.1 Tigole [G.DRIVE]

Malcolm-X-(1992)-(1080p-BluRay-x265-HEVC-10bit-AAC-5.1-Tigole)

Biographical epic of the controversial and influential Black Nationalist leader, from his early life and career as a small-time gangster, to his ministry as a member of the Nation of Islam.

Links: iMDB Trailer

Malcolm X (1992) 1080p BluRay x265 HEVC 10bit AAC 5.1 Tigole
MKV-HEVC | 1920×1080 | English | Subs.ENG/FRE/SPA | AAC 5.1 | 9.96GB

This content is reserved for registered users. Sign up here o login to be able to see it. Buy your VIP membership

MEGA – 1FICHIER

NFO

General
Unique ID : 317448841458150229996261236892684463939 (0xEED26C46F1D1ACA022A5BD98EADF2F43)
Complete name : Malcolm X (1992) (1080p BluRay x265 10bit Tigole).mkv
Format : Matroska
Format version : Version 4
File size : 9.96 GiB
Duration : 3 h 21 min
Overall bit rate : 7 068 kb/s
Movie name : Malcolm X
Encoded date : UTC 2020-11-09 09:25:14
Writing application : mkvmerge v38.0.0 (‘The Silent Type’) 64-bit
Writing library : libebml v1.3.9 + libmatroska v1.5.2

Video
ID : 1
Format : HEVC
Format/Info : High Efficiency Video Coding
Format profile : Main [email protected]@Main
Codec ID : V_MPEGH/ISO/HEVC
Duration : 3 h 21 min
Bit rate : 6 501 kb/s
Width : 1 920 pixels
Height : 1 080 pixels
Display aspect ratio : 16:9
Frame rate mode : Constant
Frame rate : 23.976 (24000/1001) FPS
Color space : YUV
Chroma subsampling : 4:2:0
Bit depth : 10 bits
Bits/(Pixel*Frame) : 0.131
Stream size : 9.16 GiB (92%)
Writing library : x265 3.2+23-52135ffd9bcd:[Windows][GCC 9.2.0][64 bit] 10bit
Encoding settings : cpuid=1111039 / frame-threads=3 / numa-pools=8 / wpp / no-pmode / no-pme / no-psnr / no-ssim / log-level=2 / input-csp=1 / input-res=1920×1080 / interlace=0 / total-frames=290138 / level-idc=0 / high-tier=1 / uhd-bd=0 / ref=4 / no-allow-non-conformance / no-repeat-headers / annexb / no-aud / no-hrd / info / hash=0 / no-temporal-layers / open-gop / min-keyint=23 / keyint=250 / gop-lookahead=0 / bframes=4 / b-adapt=2 / b-pyramid / bframe-bias=0 / rc-lookahead=25 / lookahead-slices=4 / scenecut=40 / hist-scenecut=0 / radl=0 / no-splice / no-intra-refresh / ctu=64 / min-cu-size=8 / rect / no-amp / max-tu-size=32 / tu-inter-depth=1 / tu-intra-depth=1 / limit-tu=0 / rdoq-level=2 / dynamic-rd=0.00 / no-ssim-rd / signhide / no-tskip / nr-intra=0 / nr-inter=0 / no-constrained-intra / strong-intra-smoothing / max-merge=3 / limit-refs=3 / limit-modes / me=3 / subme=3 / merange=57 / temporal-mvp / no-frame-dup / no-hme / weightp / no-weightb / no-analyze-src-pics / deblock=0:0 / no-sao / no-sao-non-deblock / rd=4 / selective-sao=0 / no-early-skip / rskip / no-fast-intra / no-tskip-fast / no-cu-lossless / no-b-intra / no-splitrd-skip / rdpenalty=0 / psy-rd=2.00 / psy-rdoq=1.00 / no-rd-refine / no-lossless / cbqpoffs=0 / crqpoffs=0 / rc=abr / bitrate=6500 / qcomp=0.60 / qpstep=4 / stats-write=0 / stats-read=2 / cplxblur=20.0 / qblur=0.5 / ipratio=1.40 / pbratio=1.30 / aq-mode=3 / aq-strength=1.00 / cutree / zone-count=0 / no-strict-cbr / qg-size=32 / no-rc-grain / qpmax=69 / qpmin=0 / no-const-vbv / sar=0 / overscan=0 / videoformat=5 / range=0 / colorprim=2 / transfer=2 / colormatrix=2 / chromaloc=0 / display-window=0 / cll=0,0 / min-luma=0 / max-luma=1023 / log2-max-poc-lsb=8 / vui-timing-info / vui-hrd-info / slices=1 / no-opt-qp-pps / no-opt-ref-list-length-pps / multi-pass-opt-rps / scenecut-bias=0.05 / hist-threshold=0.01 / no-opt-cu-delta-qp / aq-motion / no-hdr / no-hdr-opt / no-dhdr10-opt / no-idr-recovery-sei / analysis-reuse-level=5 / scale-factor=0 / refine-intra=0 / refine-inter=0 / refine-mv=1 / refine-ctu-distortion=0 / no-limit-sao / ctu-info=0 / no-lowpass-dct / refine-analysis-type=0 / copy-pic=1 / max-ausize-factor=1.0 / no-dynamic-refine / no-single-sei / no-hevc-aq / no-svt / no-field / qp-adaptation-range=1.00 / no-scenecut-aware-qp
Default : Yes
Forced : No

Audio #1
ID : 2
Format : AAC LC
Format/Info : Advanced Audio Codec Low Complexity
Codec ID : A_AAC-2
Duration : 3 h 21 min
Bit rate : 441 kb/s
Channel(s) : 6 channels
Channel layout : C L R Ls Rs LFE
Sampling rate : 48.0 kHz
Frame rate : 46.875 FPS (1024 SPF)
Compression mode : Lossy
Delay relative to video : 20 ms
Stream size : 636 MiB (6%)
Language : English
Default : Yes
Forced : No

Audio #2
ID : 3
Format : AAC LC SBR
Format/Info : Advanced Audio Codec Low Complexity with Spectral Band Replication
Commercial name : HE-AAC
Format settings : Explicit
Codec ID : A_AAC-2
Duration : 3 h 21 min
Bit rate : 66.2 kb/s
Channel(s) : 2 channels
Channel layout : L R
Sampling rate : 48.0 kHz
Frame rate : 23.438 FPS (2048 SPF)
Compression mode : Lossy
Delay relative to video : 40 ms
Stream size : 95.0 MiB (1%)
Title : Commentary
Language : English
Default : No
Forced : No

Text #1
ID : 4
Format : VobSub
Muxing mode : zlib
Codec ID : S_VOBSUB
Codec ID/Info : Picture based subtitle format used on DVDs
Duration : 3 h 21 min
Bit rate : 12.4 kb/s
Count of elements : 2907
Stream size : 17.8 MiB (0%)
Language : English
Default : No
Forced : No

Text #2
ID : 5
Format : VobSub
Muxing mode : zlib
Codec ID : S_VOBSUB
Codec ID/Info : Picture based subtitle format used on DVDs
Duration : 3 h 21 min
Bit rate : 10.6 kb/s
Count of elements : 2661
Stream size : 15.3 MiB (0%)
Language : Danish
Default : No
Forced : No

Text #3
ID : 6
Format : VobSub
Muxing mode : zlib
Codec ID : S_VOBSUB
Codec ID/Info : Picture based subtitle format used on DVDs
Duration : 3 h 21 min
Bit rate : 10.2 kb/s
Count of elements : 2280
Stream size : 14.7 MiB (0%)
Language : Finnish
Default : No
Forced : No

Text #4
ID : 7
Format : VobSub
Muxing mode : zlib
Codec ID : S_VOBSUB
Codec ID/Info : Picture based subtitle format used on DVDs
Duration : 3 h 21 min
Bit rate : 8 415 b/s
Count of elements : 2433
Stream size : 12.1 MiB (0%)
Language : French
Default : No
Forced : No

Text #5
ID : 8
Format : VobSub
Muxing mode : zlib
Codec ID : S_VOBSUB
Codec ID/Info : Picture based subtitle format used on DVDs
Duration : 3 h 21 min
Bit rate : 12.8 kb/s
Count of elements : 2922
Stream size : 18.4 MiB (0%)
Language : Italian
Default : No
Forced : No

Text #6
ID : 9
Format : VobSub
Muxing mode : zlib
Codec ID : S_VOBSUB
Codec ID/Info : Picture based subtitle format used on DVDs
Duration : 3 h 21 min
Bit rate : 9 843 b/s
Count of elements : 2661
Stream size : 14.2 MiB (0%)
Language : Norwegian Bokmal
Default : No
Forced : No

Text #7
ID : 10
Format : VobSub
Muxing mode : zlib
Codec ID : S_VOBSUB
Codec ID/Info : Picture based subtitle format used on DVDs
Duration : 3 h 21 min
Bit rate : 10.6 kb/s
Count of elements : 2664
Stream size : 15.3 MiB (0%)
Language : Portuguese
Default : No
Forced : No

Text #8
ID : 11
Format : VobSub
Muxing mode : zlib
Codec ID : S_VOBSUB
Codec ID/Info : Picture based subtitle format used on DVDs
Duration : 3 h 21 min
Bit rate : 11.1 kb/s
Count of elements : 2615
Stream size : 16.0 MiB (0%)
Language : Spanish
Default : No
Forced : No

Text #9
ID : 12
Format : VobSub
Muxing mode : zlib
Codec ID : S_VOBSUB
Codec ID/Info : Picture based subtitle format used on DVDs
Duration : 3 h 21 min
Bit rate : 10.1 kb/s
Count of elements : 2436
Stream size : 14.5 MiB (0%)
Language : Swedish
Default : No
Forced : No

Menu
00:00:00.000 : en:Chapter 01
00:02:48.084 : en:Chapter 02
00:07:10.304 : en:Chapter 03
00:10:05.187 : en:Chapter 04
00:13:31.310 : en:Chapter 05
00:18:15.344 : en:Chapter 06
00:19:37.593 : en:Chapter 07
00:21:34.126 : en:Chapter 08
00:26:05.855 : en:Chapter 09
00:29:46.576 : en:Chapter 10
00:35:12.360 : en:Chapter 11
00:39:46.008 : en:Chapter 12
00:45:30.018 : en:Chapter 13
00:47:58.000 : en:Chapter 14
00:49:54.825 : en:Chapter 15
00:55:56.770 : en:Chapter 16
01:00:29.167 : en:Chapter 17
01:05:06.569 : en:Chapter 18
01:08:19.762 : en:Chapter 19
01:14:25.210 : en:Chapter 20
01:17:50.123 : en:Chapter 21
01:23:26.835 : en:Chapter 22
01:25:32.335 : en:Chapter 23
01:27:27.200 : en:Chapter 24
01:30:53.948 : en:Chapter 25
01:36:01.088 : en:Chapter 26
01:40:42.411 : en:Chapter 27
01:43:23.739 : en:Chapter 28
01:48:55.904 : en:Chapter 29
01:51:24.344 : en:Chapter 30
01:53:51.741 : en:Chapter 31
01:56:48.042 : en:Chapter 32
02:02:39.226 : en:Chapter 33
02:06:47.850 : en:Chapter 34
02:13:18.323 : en:Chapter 35
02:20:48.648 : en:Chapter 36
02:23:05.159 : en:Chapter 37
02:25:39.814 : en:Chapter 38
02:29:27.792 : en:Chapter 39
02:32:27.471 : en:Chapter 40
02:35:59.933 : en:Chapter 41
02:42:28.655 : en:Chapter 42
02:45:47.687 : en:Chapter 43
02:50:01.941 : en:Chapter 44
02:50:45.276 : en:Chapter 45
02:52:10.320 : en:Chapter 46
02:56:41.007 : en:Chapter 47
02:59:49.904 : en:Chapter 48
03:03:40.926 : en:Chapter 49
03:07:41.583 : en:Chapter 50
03:11:00.615 : en:Chapter 51
03:12:24.241 : en:Chapter 52

(He/Him) He's BvSRips. I dedicate myself to sharing files on this blog for free. But it is difficult to maintain the links online for a long time, they are denounced and deleted, reuploading costs more work, that is why a section for VIP users was created, where they can download all the files published 100% in MEGA, as premium, without spend more. I would greatly appreciate your collaboration so that this blog remains online for a longer time.

BUY VIP HERE

You may also like...

Leave a Reply

Your email address will not be published. Required fields are marked *