Knight of Erin – 02 [MEGA]

[SakuraCircle] Knight of Erin – 02 (Knight of Erin 2nd tale(セカンドテイル) ウシ乳エリンとネコ耳エリン、もひとつおまけにチアガール) – English Softsubs
MP4 – 720×480 – Japanese – Subs.English – 135MB

1FICHIER – MEGA

NFO

General
Unique ID : 2523075568185028564956147344967024739 (0x1E5ED3AD398DECA2F52FE6DBC814063)
Complete name : [SakuraCircle] Knight of Erin – 02 (DVD 720×480 h264 AAC) [2BCECB77].mkv
Format : Matroska
Format version : Version 4
File size : 135 MiB
Duration : 15 min 28 s
Overall bit rate : 1 216 kb/s
Movie name : Knight of Erin – 02: A Cowtits and a Cat-Eared Erin, Plus a Cheerleader One as a Bonus
Encoded date : UTC 2020-11-30 02:06:03
Writing application : mkvmerge v51.0.0 (‘I Wish’) 64-bit
Writing library : libebml v1.4.0 + libmatroska v1.6.2
Attachments : Fry_Pro_hun.ttf / Lato-Bol.ttf / Lato-BolIta.ttf / seguisb.ttf

Video
ID : 1
Format : AVC
Format/Info : Advanced Video Codec
Format profile : [email protected]
Format settings : CABAC / 5 Ref Frames
Format settings, CABAC : Yes
Format settings, Reference frames : 5 frames
Codec ID : V_MPEG4/ISO/AVC
Duration : 15 min 28 s
Bit rate : 1 012 kb/s
Width : 720 pixels
Height : 480 pixels
Display aspect ratio : 16:9
Frame rate mode : Variable
Frame rate : 24.815 FPS
Original frame rate : 29.970 (30000/1001) FPS
Color space : YUV
Chroma subsampling : 4:2:0
Bit depth : 8 bits
Scan type : Progressive
Bits/(Pixel*Frame) : 0.118
Stream size : 112 MiB (83%)
Title : Shareraw from hikiko123
Writing library : x264 core 123 r2184+681M 5d72658
Encoding settings : cabac=1 / ref=5 / deblock=1:-2:-2 / analyse=0x3:0x113 / me=umh / subme=7 / psy=1 / fade_compensate=0.00 / psy_rd=1.00:0.00 / mixed_ref=1 / me_range=32 / chroma_me=1 / trellis=1 / 8x8dct=1 / cqm=0 / deadzone=21,11 / fast_pskip=1 / chroma_qp_offset=-2 / threads=7 / sliced_threads=1 / slices=7 / nr=0 / decimate=1 / interlaced=0 / bluray_compat=0 / constrained_intra=0 / fgo=0 / bframes=3 / b_pyramid=2 / b_adapt=2 / b_bias=0 / direct=3 / weightb=1 / open_gop=0 / weightp=2 / keyint=250 / keyint_min=25 / scenecut=40 / intra_refresh=0 / rc_lookahead=40 / rc=crf / mbtree=1 / crf=18.0000 / qcomp=0.60 / qpmin=0 / qpmax=69 / qpstep=4 / ip_ratio=1.40 / aq=1:1.00
Language : Japanese
Default : Yes
Forced : No

Audio
ID : 2
Format : AAC LC
Format/Info : Advanced Audio Codec Low Complexity
Codec ID : A_AAC-2
Duration : 15 min 28 s
Bit rate : 192 kb/s
Channel(s) : 2 channels
Channel layout : L R
Sampling rate : 48.0 kHz
Frame rate : 46.875 FPS (1024 SPF)
Compression mode : Lossy
Stream size : 21.0 MiB (16%)
Title : Shareraw from hikiko123
Language : Japanese
Default : Yes
Forced : No

Text
ID : 3
Format : ASS
Codec ID : S_TEXT/ASS
Codec ID/Info : Advanced Sub Station Alpha
Duration : 15 min 15 s
Bit rate : 98 b/s
Count of elements : 185
Compression mode : Lossless
Stream size : 11.0 KiB (0%)
Title : SakuraCircle – Translated by Tennouji
Language : English
Default : Yes
Forced : No

Menu
00:00:00.000 : :Intro
00:01:06.758 : :Title
00:01:18.770 : :Part 1
00:06:49.976 : :Intermission
00:06:54.981 : :Part 2
00:13:58.738 : :Ending

You may also like...

Leave a Reply

Your email address will not be published. Required fields are marked *