Harry Potter and the Half-Blood Prince (2009) 2160p BluRay x265 HEVC 10bit HDR AAC 7.1 Tigole [G.DRIVE]

As Harry Potter begins his sixth year at Hogwarts, he discovers an old book marked as “the property of the Half-Blood Prince” and begins to learn more about Lord Voldemort’s dark past.

Links: iMDB Trailer

Harry Potter and the Half-Blood Prince (2009) 2160p BluRay x265 HEVC 10bit HDR AAC 7.1 Tigole
MKV-HEVC | 3840×1608 | ENGLISH | Subs.ENG/FRE/SPA | AAC 5.1 | 16.80GB

This content is reserved for registered users. Sign up here o login to be able to see it. Buy your VIP membership

MEGA – 1FICHIER

NFO

General
Unique ID : 261349393260838988476236940321477126025 (0xC49E0FEF25B6EADB1360B9F0E40C6789)
Complete name : Harry Potter and the Half-Blood Prince (2009) (2160p BluRay x265 10bit HDR Tigole).mkv
Format : Matroska
Format version : Version 4
File size : 13.4 GiB
Duration : 2 h 33 min
Overall bit rate : 12.5 Mb/s
Movie name : Harry Potter and the Half-Blood Prince
Encoded date : UTC 2018-08-27 12:59:06
Writing application : mkvmerge v25.0.0 (‘Prog Noir’) 64-bit
Writing library : libebml v1.3.6 + libmatroska v1.4.9

Video
ID : 1
Format : HEVC
Format/Info : High Efficiency Video Coding
Format profile : Main [email protected]@Main
HDR format : SMPTE ST 2086, HDR10 compatible
Codec ID : V_MPEGH/ISO/HEVC
Duration : 2 h 33 min
Bit rate : 11.7 Mb/s
Width : 3 840 pixels
Height : 1 600 pixels
Display aspect ratio : 2.40:1
Frame rate mode : Constant
Frame rate : 23.976 (24000/1001) FPS
Color space : YUV
Chroma subsampling : 4:2:0
Bit depth : 10 bits
Bits/(Pixel*Frame) : 0.079
Stream size : 12.5 GiB (93%)
Writing library : x265 2.8+40-0106f9f2f867:[Windows][GCC 7.3.0][64 bit] 10bit
Encoding settings : cpuid=1111039 / frame-threads=3 / numa-pools=8 / wpp / no-pmode / no-pme / no-psnr / no-ssim / log-level=2 / input-csp=1 / input-res=3840×1600 / interlace=0 / total-frames=220837 / level-idc=0 / high-tier=1 / uhd-bd=0 / ref=4 / no-allow-non-conformance / repeat-headers / annexb / no-aud / no-hrd / info / hash=0 / no-temporal-layers / open-gop / min-keyint=23 / keyint=250 / gop-lookahead=0 / bframes=4 / b-adapt=2 / b-pyramid / bframe-bias=0 / rc-lookahead=25 / lookahead-slices=4 / scenecut=40 / radl=0 / no-intra-refresh / ctu=64 / min-cu-size=8 / rect / no-amp / max-tu-size=32 / tu-inter-depth=1 / tu-intra-depth=1 / limit-tu=0 / rdoq-level=2 / dynamic-rd=0.00 / no-ssim-rd / signhide / no-tskip / nr-intra=0 / nr-inter=0 / no-constrained-intra / strong-intra-smoothing / max-merge=3 / limit-refs=3 / limit-modes / me=3 / subme=3 / merange=57 / temporal-mvp / weightp / no-weightb / no-analyze-src-pics / deblock=0:0 / sao / no-sao-non-deblock / rd=4 / no-early-skip / rskip / no-fast-intra / no-tskip-fast / no-cu-lossless / no-b-intra / no-splitrd-skip / rdpenalty=0 / psy-rd=2.00 / psy-rdoq=1.00 / no-rd-refine / no-lossless / cbqpoffs=0 / crqpoffs=0 / rc=crf / crf=18.0 / qcomp=0.60 / qpstep=4 / stats-write=0 / stats-read=0 / ipratio=1.40 / pbratio=1.30 / aq-mode=3 / aq-strength=1.00 / cutree / zone-count=0 / no-strict-cbr / qg-size=32 / no-rc-grain / qpmax=69 / qpmin=0 / no-const-vbv / sar=0 / overscan=0 / videoformat=5 / range=0 / colorprim=9 / transfer=16 / colormatrix=9 / chromaloc=0 / display-window=0 / master-display=G(13250,34500)B(7500,3000)R(34000,16000)WP(15635,16450)L(40000000,50) / max-cll=500,200 / min-luma=0 / max-luma=1023 / log2-max-poc-lsb=8 / vui-timing-info / vui-hrd-info / slices=1 / no-opt-qp-pps / no-opt-ref-list-length-pps / no-multi-pass-opt-rps / scenecut-bias=0.05 / no-opt-cu-delta-qp / aq-motion / hdr / hdr-opt / no-dhdr10-opt / no-idr-recovery-sei / analysis-reuse-level=5 / scale-factor=0 / refine-intra=0 / refine-inter=0 / refine-mv=0 / no-limit-sao / ctu-info=0 / no-lowpass-dct / refine-mv-type=0 / copy-pic=1 / max-ausize-factor=1.0 / no-dynamic-refine / no-single-sei
Default : Yes
Forced : No
Color range : Limited
Color primaries : BT.2020
Transfer characteristics : PQ
Matrix coefficients : BT.2020 non-constant
Mastering display color primaries : Display P3
Mastering display luminance : min: 0.0050 cd/m2, max: 4000 cd/m2
Maximum Content Light Level : 500 cd/m2
Maximum Frame-Average Light Level : 200 cd/m2

Audio
ID : 2
Format : AAC LC
Format/Info : Advanced Audio Codec Low Complexity
Codec ID : A_AAC-2
Duration : 2 h 33 min
Bit rate : 778 kb/s
Channel(s) : 8 channels
Channel layout : C L R Ls Rs Lb Rb LFE
Sampling rate : 48.0 kHz
Frame rate : 46.875 FPS (1024 SPF)
Compression mode : Lossy
Delay relative to video : 20 ms
Stream size : 855 MiB (6%)
Language : English
Default : Yes
Forced : No

Text #1
ID : 3
Format : VobSub
Muxing mode : zlib
Codec ID : S_VOBSUB
Codec ID/Info : Picture based subtitle format used on DVDs
Duration : 2 h 33 min
Bit rate : 8 430 b/s
Count of elements : 1521
Stream size : 9.23 MiB (0%)
Language : English
Default : No
Forced : No

Text #2
ID : 4
Format : VobSub
Muxing mode : zlib
Codec ID : S_VOBSUB
Codec ID/Info : Picture based subtitle format used on DVDs
Duration : 2 h 33 min
Bit rate : 4 452 b/s
Count of elements : 1447
Stream size : 4.88 MiB (0%)
Language : Arabic
Default : No
Forced : No

Text #3
ID : 5
Format : VobSub
Muxing mode : zlib
Codec ID : S_VOBSUB
Codec ID/Info : Picture based subtitle format used on DVDs
Duration : 2 h 33 min
Bit rate : 6 292 b/s
Count of elements : 1468
Stream size : 6.89 MiB (0%)
Language : Chinese
Default : No
Forced : No

Text #4
ID : 6
Format : VobSub
Muxing mode : zlib
Codec ID : S_VOBSUB
Codec ID/Info : Picture based subtitle format used on DVDs
Duration : 2 h 33 min
Bit rate : 6 685 b/s
Count of elements : 1434
Stream size : 7.32 MiB (0%)
Language : Czech
Default : No
Forced : No

Text #5
ID : 7
Format : VobSub
Muxing mode : zlib
Codec ID : S_VOBSUB
Codec ID/Info : Picture based subtitle format used on DVDs
Duration : 2 h 33 min
Bit rate : 6 723 b/s
Count of elements : 1055
Stream size : 7.36 MiB (0%)
Language : Danish
Default : No
Forced : No

Text #6
ID : 8
Format : VobSub
Muxing mode : zlib
Codec ID : S_VOBSUB
Codec ID/Info : Picture based subtitle format used on DVDs
Duration : 2 h 33 min
Bit rate : 6 376 b/s
Count of elements : 1125
Stream size : 6.98 MiB (0%)
Language : Dutch
Default : No
Forced : No

Text #7
ID : 9
Format : VobSub
Muxing mode : zlib
Codec ID : S_VOBSUB
Codec ID/Info : Picture based subtitle format used on DVDs
Duration : 2 h 33 min
Bit rate : 6 374 b/s
Count of elements : 1123
Stream size : 6.98 MiB (0%)
Language : Finnish
Default : No
Forced : No

Text #8
ID : 10
Format : VobSub
Muxing mode : zlib
Codec ID : S_VOBSUB
Codec ID/Info : Picture based subtitle format used on DVDs
Duration : 2 h 33 min
Bit rate : 8 154 b/s
Count of elements : 1416
Stream size : 8.93 MiB (0%)
Language : French
Default : No
Forced : No

Text #9
ID : 11
Format : VobSub
Muxing mode : zlib
Codec ID : S_VOBSUB
Codec ID/Info : Picture based subtitle format used on DVDs
Duration : 2 h 33 min
Bit rate : 9 901 b/s
Count of elements : 1614
Stream size : 10.8 MiB (0%)
Language : German
Default : No
Forced : No

Text #10
ID : 12
Format : VobSub
Muxing mode : zlib
Codec ID : S_VOBSUB
Codec ID/Info : Picture based subtitle format used on DVDs
Duration : 2 h 33 min
Bit rate : 8 137 b/s
Count of elements : 1546
Stream size : 8.91 MiB (0%)
Language : Italian
Default : No
Forced : No

Text #11
ID : 13
Format : VobSub
Muxing mode : zlib
Codec ID : S_VOBSUB
Codec ID/Info : Picture based subtitle format used on DVDs
Duration : 2 h 32 min
Bit rate : 6 764 b/s
Count of elements : 1907
Stream size : 7.40 MiB (0%)
Language : Japanese
Default : No
Forced : No

Text #12
ID : 14
Format : VobSub
Muxing mode : zlib
Codec ID : S_VOBSUB
Codec ID/Info : Picture based subtitle format used on DVDs
Duration : 2 h 33 min
Bit rate : 4 887 b/s
Count of elements : 1436
Stream size : 5.35 MiB (0%)
Language : Korean
Default : No
Forced : No

Text #13
ID : 15
Format : VobSub
Muxing mode : zlib
Codec ID : S_VOBSUB
Codec ID/Info : Picture based subtitle format used on DVDs
Duration : 2 h 33 min
Bit rate : 6 986 b/s
Count of elements : 1346
Stream size : 7.65 MiB (0%)
Language : Norwegian Bokmal
Default : No
Forced : No

Text #14
ID : 16
Format : VobSub
Muxing mode : zlib
Codec ID : S_VOBSUB
Codec ID/Info : Picture based subtitle format used on DVDs
Duration : 2 h 33 min
Bit rate : 7 319 b/s
Count of elements : 1454
Stream size : 8.02 MiB (0%)
Language : Polish
Default : No
Forced : No

Text #15
ID : 17
Format : VobSub
Muxing mode : zlib
Codec ID : S_VOBSUB
Codec ID/Info : Picture based subtitle format used on DVDs
Duration : 2 h 33 min
Bit rate : 7 615 b/s
Count of elements : 1448
Stream size : 8.34 MiB (0%)
Language : Portuguese
Default : No
Forced : No

Text #16
ID : 18
Format : VobSub
Muxing mode : zlib
Codec ID : S_VOBSUB
Codec ID/Info : Picture based subtitle format used on DVDs
Duration : 2 h 33 min
Bit rate : 7 535 b/s
Count of elements : 1566
Stream size : 8.25 MiB (0%)
Language : Spanish
Default : No
Forced : No

Text #17
ID : 19
Format : VobSub
Muxing mode : zlib
Codec ID : S_VOBSUB
Codec ID/Info : Picture based subtitle format used on DVDs
Duration : 2 h 33 min
Bit rate : 6 268 b/s
Count of elements : 1065
Stream size : 6.86 MiB (0%)
Language : Swedish
Default : No
Forced : No

Menu
00:00:00.000 : en:Chapter 01
00:05:28.119 : en:Chapter 02
00:12:13.858 : en:Chapter 03
00:14:56.896 : en:Chapter 04
00:18:43.122 : en:Chapter 05
00:22:30.432 : en:Chapter 06
00:27:35.779 : en:Chapter 07
00:32:04.547 : en:Chapter 08
00:37:48.140 : en:Chapter 09
00:44:48.268 : en:Chapter 10
00:49:31.510 : en:Chapter 11
00:54:55.292 : en:Chapter 12
01:00:00.221 : en:Chapter 13
01:03:09.452 : en:Chapter 14
01:05:57.078 : en:Chapter 15
01:09:13.607 : en:Chapter 16
01:13:59.935 : en:Chapter 17
01:21:09.364 : en:Chapter 18
01:26:31.352 : en:Chapter 19
01:33:37.320 : en:Chapter 20
01:39:56.949 : en:Chapter 21
01:43:15.939 : en:Chapter 22
01:48:24.664 : en:Chapter 23
01:52:30.034 : en:Chapter 24
01:56:53.589 : en:Chapter 25
02:02:11.615 : en:Chapter 26
02:08:33.455 : en:Chapter 27
02:15:00.175 : en:Chapter 28
02:19:08.465 : en:Chapter 29
02:23:54.208 : en:Chapter 30

 

You may also like...

Leave a Reply

Your email address will not be published. Required fields are marked *