Gone with the Wind (1939) 70th Anniv 1080p BluRay x265 HEVC 10bit AAC 5.1 Tigole [G.DRIVE]

Gone-with-the-Wind-(1939)-70th-Anniv-(1080p-BluRay-x265-HEVC-10bit-AAC-5.1-Tigole)

The story of the Apache chief and his armed resistance to the U.S. Government’s subjugation of his people.

Links: iMDB Trailer

Gone with the Wind (1939) 70th Anniv 1080p BluRay x265 HEVC 10bit AAC 5.1 Tigole
MKV-HEVC | 1480×1080 | English | Subs.ENG/FRE/GER/SPA | AAC 5.1 | 7.75GB

This content is reserved for registered users. Sign up here o login to be able to see it.

MEGA – 1FICHIER

NFO

General
Unique ID : 309871236306645743832105441087581910113 (0xE91F077F98D73722C7526812666CF461)
Complete name : Gone with the Wind (1939) 70th Anniv (1080p BluRay x265 10bit Tigole).mkv
Format : Matroska
Format version : Version 4
File size : 7.75 GiB
Duration : 3 h 53 min
Overall bit rate : 4 754 kb/s
Movie name : Gone with the Wind
Encoded date : UTC 2018-10-19 04:13:05
Writing application : mkvmerge v26.0.0 (‘In The Game’) 64-bit
Writing library : libebml v1.3.6 + libmatroska v1.4.9

Video
ID : 1
Format : HEVC
Format/Info : High Efficiency Video Coding
Format profile : Main [email protected]@Main
Codec ID : V_MPEGH/ISO/HEVC
Duration : 3 h 53 min
Bit rate : 4 250 kb/s
Width : 1 480 pixels
Height : 1 080 pixels
Display aspect ratio : 1.370
Frame rate mode : Constant
Frame rate : 23.976 (24000/1001) FPS
Color space : YUV
Chroma subsampling : 4:2:0
Bit depth : 10 bits
Bits/(Pixel*Frame) : 0.111
Stream size : 6.92 GiB (89%)
Writing library : x265 2.9+1-169e76b6bbcc:[Windows][GCC 8.2.0][64 bit] 10bit
Encoding settings : cpuid=1111039 / frame-threads=3 / numa-pools=8 / wpp / no-pmode / no-pme / no-psnr / no-ssim / log-level=2 / input-csp=1 / input-res=1480×1080 / interlace=0 / total-frames=335527 / level-idc=0 / high-tier=1 / uhd-bd=0 / ref=4 / no-allow-non-conformance / no-repeat-headers / annexb / no-aud / no-hrd / info / hash=0 / no-temporal-layers / open-gop / min-keyint=23 / keyint=250 / gop-lookahead=0 / bframes=4 / b-adapt=2 / b-pyramid / bframe-bias=0 / rc-lookahead=25 / lookahead-slices=4 / scenecut=40 / radl=0 / no-intra-refresh / ctu=64 / min-cu-size=8 / rect / no-amp / max-tu-size=32 / tu-inter-depth=1 / tu-intra-depth=1 / limit-tu=0 / rdoq-level=2 / dynamic-rd=0.00 / no-ssim-rd / signhide / no-tskip / nr-intra=0 / nr-inter=0 / no-constrained-intra / strong-intra-smoothing / max-merge=3 / limit-refs=3 / limit-modes / me=3 / subme=3 / merange=57 / temporal-mvp / weightp / no-weightb / no-analyze-src-pics / deblock=0:0 / sao / no-sao-non-deblock / rd=4 / no-early-skip / rskip / no-fast-intra / no-tskip-fast / no-cu-lossless / no-b-intra / no-splitrd-skip / rdpenalty=0 / psy-rd=2.00 / psy-rdoq=1.00 / no-rd-refine / no-lossless / cbqpoffs=0 / crqpoffs=0 / rc=abr / bitrate=4250 / qcomp=0.60 / qpstep=4 / stats-write=0 / stats-read=2 / cplxblur=20.0 / qblur=0.5 / ipratio=1.40 / pbratio=1.30 / aq-mode=3 / aq-strength=1.00 / cutree / zone-count=0 / no-strict-cbr / qg-size=32 / no-rc-grain / qpmax=69 / qpmin=0 / no-const-vbv / sar=0 / overscan=0 / videoformat=5 / range=0 / colorprim=2 / transfer=2 / colormatrix=2 / chromaloc=0 / display-window=0 / max-cll=0,0 / min-luma=0 / max-luma=1023 / log2-max-poc-lsb=8 / vui-timing-info / vui-hrd-info / slices=1 / no-opt-qp-pps / no-opt-ref-list-length-pps / multi-pass-opt-rps / scenecut-bias=0.05 / no-opt-cu-delta-qp / aq-motion / no-hdr / no-hdr-opt / no-dhdr10-opt / no-idr-recovery-sei / analysis-reuse-level=5 / scale-factor=0 / refine-intra=0 / refine-inter=0 / refine-mv=0 / no-limit-sao / ctu-info=0 / no-lowpass-dct / refine-mv-type=0 / copy-pic=1 / max-ausize-factor=1.0 / no-dynamic-refine / no-single-sei
Default : Yes
Forced : No

Audio #1
ID : 2
Format : AAC LC
Format/Info : Advanced Audio Codec Low Complexity
Codec ID : A_AAC-2
Duration : 3 h 53 min
Bit rate : 371 kb/s
Channel(s) : 6 channels
Channel layout : C L R Ls Rs LFE
Sampling rate : 48.0 kHz
Frame rate : 46.875 FPS (1024 SPF)
Compression mode : Lossy
Delay relative to video : 20 ms
Stream size : 619 MiB (8%)
Language : English
Default : Yes
Forced : No

Audio #2
ID : 3
Format : AAC LC SBR
Format/Info : Advanced Audio Codec Low Complexity with Spectral Band Replication
Commercial name : HE-AAC
Format settings : Explicit
Codec ID : A_AAC-2
Duration : 3 h 53 min
Bit rate : 66.2 kb/s
Channel(s) : 2 channels
Channel layout : L R
Sampling rate : 48.0 kHz
Frame rate : 23.438 FPS (2048 SPF)
Compression mode : Lossy
Delay relative to video : 40 ms
Stream size : 110 MiB (1%)
Title : Commentary
Language : English
Default : No
Forced : No

Text #1
ID : 4
Format : VobSub
Muxing mode : zlib
Codec ID : S_VOBSUB
Codec ID/Info : Picture based subtitle format used on DVDs
Duration : 3 h 46 min
Bit rate : 13.1 kb/s
Count of elements : 3146
Stream size : 21.1 MiB (0%)
Language : English
Default : No
Forced : No

Text #2
ID : 5
Format : VobSub
Muxing mode : zlib
Codec ID : S_VOBSUB
Codec ID/Info : Picture based subtitle format used on DVDs
Duration : 3 h 49 min
Bit rate : 9 272 b/s
Count of elements : 1993
Stream size : 15.2 MiB (0%)
Language : Danish
Default : No
Forced : No

Text #3
ID : 6
Format : VobSub
Muxing mode : zlib
Codec ID : S_VOBSUB
Codec ID/Info : Picture based subtitle format used on DVDs
Duration : 3 h 46 min
Bit rate : 9 820 b/s
Count of elements : 2145
Stream size : 15.9 MiB (0%)
Language : Dutch
Default : No
Forced : No

Text #4
ID : 7
Format : VobSub
Muxing mode : zlib
Codec ID : S_VOBSUB
Codec ID/Info : Picture based subtitle format used on DVDs
Duration : 3 h 53 min
Bit rate : 8 739 b/s
Count of elements : 2028
Stream size : 14.6 MiB (0%)
Language : Finnish
Default : No
Forced : No

Text #5
ID : 8
Format : VobSub
Muxing mode : zlib
Codec ID : S_VOBSUB
Codec ID/Info : Picture based subtitle format used on DVDs
Duration : 3 h 49 min
Bit rate : 8 550 b/s
Count of elements : 2752
Stream size : 14.1 MiB (0%)
Language : French
Default : No
Forced : No

Text #6
ID : 9
Format : VobSub
Muxing mode : zlib
Codec ID : S_VOBSUB
Codec ID/Info : Picture based subtitle format used on DVDs
Duration : 3 h 50 min
Bit rate : 13.3 kb/s
Count of elements : 3180
Stream size : 21.9 MiB (0%)
Language : German
Default : No
Forced : No

Text #7
ID : 10
Format : VobSub
Muxing mode : zlib
Codec ID : S_VOBSUB
Codec ID/Info : Picture based subtitle format used on DVDs
Duration : 3 h 50 min
Bit rate : 11.3 kb/s
Count of elements : 3018
Stream size : 18.5 MiB (0%)
Language : Italian
Default : No
Forced : No

Text #8
ID : 11
Format : VobSub
Muxing mode : zlib
Codec ID : S_VOBSUB
Codec ID/Info : Picture based subtitle format used on DVDs
Duration : 3 h 49 min
Bit rate : 8 872 b/s
Count of elements : 1998
Stream size : 14.6 MiB (0%)
Language : Norwegian Bokmal
Default : No
Forced : No

Text #9
ID : 12
Format : VobSub
Muxing mode : zlib
Codec ID : S_VOBSUB
Codec ID/Info : Picture based subtitle format used on DVDs
Duration : 3 h 53 min
Bit rate : 10.1 kb/s
Count of elements : 2549
Stream size : 16.9 MiB (0%)
Language : Portuguese
Default : No
Forced : No

Text #10
ID : 13
Format : VobSub
Muxing mode : zlib
Codec ID : S_VOBSUB
Codec ID/Info : Picture based subtitle format used on DVDs
Duration : 3 h 53 min
Bit rate : 10.2 kb/s
Count of elements : 3020
Stream size : 16.9 MiB (0%)
Language : Spanish
Default : No
Forced : No

Text #11
ID : 14
Format : VobSub
Muxing mode : zlib
Codec ID : S_VOBSUB
Codec ID/Info : Picture based subtitle format used on DVDs
Duration : 3 h 49 min
Bit rate : 8 939 b/s
Count of elements : 2478
Stream size : 14.7 MiB (0%)
Language : Swedish
Default : No
Forced : No

Menu
00:00:00.000 : en:Chapter 01
00:02:36.156 : en:Chapter 02
00:06:46.906 : en:Chapter 03
00:09:38.744 : en:Chapter 04
00:15:25.299 : en:Chapter 05
00:17:53.655 : en:Chapter 06
00:21:42.134 : en:Chapter 07
00:25:46.878 : en:Chapter 08
00:28:35.004 : en:Chapter 09
00:32:34.953 : en:Chapter 10
00:35:39.262 : en:Chapter 11
00:38:09.662 : en:Chapter 12
00:42:22.248 : en:Chapter 13
00:46:02.551 : en:Chapter 14
00:48:47.090 : en:Chapter 15
00:52:02.160 : en:Chapter 16
00:55:26.323 : en:Chapter 17
00:58:42.769 : en:Chapter 18
01:01:42.448 : en:Chapter 19
01:04:45.756 : en:Chapter 20
01:10:41.820 : en:Chapter 21
01:14:50.444 : en:Chapter 22
01:17:06.580 : en:Chapter 23
01:18:53.979 : en:Chapter 24
01:23:06.564 : en:Chapter 25
01:27:39.671 : en:Chapter 26
01:31:47.126 : en:Chapter 27
01:34:58.234 : en:Chapter 28
01:38:03.127 : en:Chapter 29
01:41:59.154 : en:Chapter 30
01:44:12.955 : en:Chapter 31
01:48:12.486 : en:Chapter 32
01:49:42.951 : en:Chapter 33
01:52:41.463 : en:Chapter 34
01:57:31.210 : en:Chapter 35
02:01:43.129 : en:Chapter 36
02:03:47.294 : en:Chapter 37
02:09:19.877 : en:Chapter 38
02:11:21.206 : en:Chapter 39
02:14:24.389 : en:Chapter 40
02:19:39.829 : en:Chapter 41
02:25:18.501 : en:Chapter 42
02:29:54.402 : en:Chapter 43
02:32:42.695 : en:Chapter 44
02:37:26.645 : en:Chapter 45
02:42:47.466 : en:Chapter 46
02:46:00.533 : en:Chapter 47
02:53:12.215 : en:Chapter 48
02:57:13.664 : en:Chapter 49
03:00:25.147 : en:Chapter 50
03:05:08.847 : en:Chapter 51
03:08:46.940 : en:Chapter 52
03:12:17.317 : en:Chapter 53
03:14:08.428 : en:Chapter 54
03:18:52.921 : en:Chapter 55
03:24:13.908 : en:Chapter 56
03:29:55.583 : en:Chapter 57
03:32:26.358 : en:Chapter 58
03:35:29.708 : en:Chapter 59
03:39:29.489 : en:Chapter 60
03:41:43.248 : en:Chapter 61
03:46:43.131 : en:Chapter 62
03:48:56.764 : en:Chapter 63

We choose a different approach. Will you support it? I am BvSRips, I make my own rips of movies and series in 1080p x265 in reduced size for those users who do not have a high speed internet. We believe that everyone should be able to enjoy TV or movie entertainment, but what if it can't be seen in my country? What if you don't have subtitles? Do I have to pay $ 10 or $ 15 on each streaming platform? That is why this website was born by sharing files on free servers (mega and 1fichier). We do not place advertising or popups because they are intrusive for the user, we want you to enjoy this website. But also the website and the tools used consume an expense that we assume and that now you can support us.You can become a VIP member and download without limit, read more here. I hope I can count on your help.

You may also like...

Leave a Reply

Your email address will not be published. Required fields are marked *