Field of Dreams (1989) 2160p BluRay x265 HEVC 10bit HDR AAC 7.1 Tigole [G.DRIVE]

Field-of-Dreams-(1989)-2160p-BluRay-x265-HEVC-10bit-HDR-AAC-7.1-Tigole

Iowa farmer Ray Kinsella is inspired by a voice he can’t ignore to pursue a dream he can hardly believe. Supported by his wife, Ray begins the quest by turning his ordinary cornfield into a place where dreams can come true.

Links: iMDB Trailer

Field of Dreams (1989) 2160p BluRay x265 HEVC 10bit HDR AAC 7.1 Tigole
MKV-HEVC | 3840×2076 | ENGLISH | Subs.ENG/FRE/SPA | AAC 7.1 | 12.00GB

This content is reserved for registered users. Sign up here o login to be able to see it. Buy your VIP membership

MEGA – 1FICHIER

NFO

General
Unique ID : 59510955956891747767125387161900561497 (0x2CC564A96335F7965AB59D9338F63459)
Complete name : Field of Dreams (1989) (2160p BluRay x265 10bit HDR Tigole).mkv
Format : Matroska
Format version : Version 4
File size : 12.0 GiB
Duration : 1 h 45 min
Overall bit rate : 16.3 Mb/s
Movie name : Field of Dreams
Encoded date : UTC 2019-06-26 08:12:37
Writing application : mkvmerge v32.0.0 (‘Astral Progressions’) 64-bit
Writing library : libebml v1.3.7 + libmatroska v1.5.0

Video
ID : 1
Format : HEVC
Format/Info : High Efficiency Video Coding
Format profile : Main [email protected]@Main
HDR format : SMPTE ST 2086, HDR10 compatible
Codec ID : V_MPEGH/ISO/HEVC
Duration : 1 h 45 min
Bit rate : 15.5 Mb/s
Width : 3 840 pixels
Height : 2 076 pixels
Display aspect ratio : 1.85:1
Frame rate mode : Constant
Frame rate : 23.976 (24000/1001) FPS
Color space : YUV
Chroma subsampling : 4:2:0
Bit depth : 10 bits
Bits/(Pixel*Frame) : 0.081
Stream size : 11.4 GiB (95%)
Writing library : x265 3.0_Au+18-768ab38fd5fd:[Windows][GCC 8.3.0][64 bit] 10bit
Encoding settings : cpuid=1111039 / frame-threads=3 / numa-pools=8 / wpp / no-pmode / no-pme / no-psnr / no-ssim / log-level=2 / input-csp=1 / input-res=3840×2076 / interlace=0 / total-frames=151812 / level-idc=0 / high-tier=1 / uhd-bd=0 / ref=4 / no-allow-non-conformance / repeat-headers / annexb / no-aud / no-hrd / info / hash=0 / no-temporal-layers / open-gop / min-keyint=23 / keyint=250 / gop-lookahead=0 / bframes=4 / b-adapt=2 / b-pyramid / bframe-bias=0 / rc-lookahead=25 / lookahead-slices=4 / scenecut=40 / radl=0 / no-splice / no-intra-refresh / ctu=64 / min-cu-size=8 / rect / no-amp / max-tu-size=32 / tu-inter-depth=1 / tu-intra-depth=1 / limit-tu=0 / rdoq-level=2 / dynamic-rd=0.00 / no-ssim-rd / signhide / no-tskip / nr-intra=0 / nr-inter=0 / no-constrained-intra / strong-intra-smoothing / max-merge=3 / limit-refs=3 / limit-modes / me=3 / subme=3 / merange=57 / temporal-mvp / weightp / no-weightb / no-analyze-src-pics / deblock=0:0 / no-sao / no-sao-non-deblock / rd=4 / no-early-skip / rskip / no-fast-intra / no-tskip-fast / no-cu-lossless / no-b-intra / no-splitrd-skip / rdpenalty=0 / psy-rd=2.00 / psy-rdoq=1.00 / no-rd-refine / no-lossless / cbqpoffs=0 / crqpoffs=0 / rc=abr / bitrate=15500 / qcomp=0.60 / qpstep=4 / stats-write=0 / stats-read=2 / cplxblur=20.0 / qblur=0.5 / ipratio=1.40 / pbratio=1.30 / aq-mode=2 / aq-strength=1.00 / cutree / zone-count=0 / no-strict-cbr / qg-size=32 / no-rc-grain / qpmax=69 / qpmin=0 / no-const-vbv / sar=0 / overscan=0 / videoformat=5 / range=0 / colorprim=9 / transfer=16 / colormatrix=9 / chromaloc=0 / display-window=0 / master-display=G(13250,34500)B(7500,3000)R(34000,16000)WP(15635,16450)L(10000000,50) / max-cll=1000,98 / min-luma=0 / max-luma=1023 / log2-max-poc-lsb=8 / vui-timing-info / vui-hrd-info / slices=1 / no-opt-qp-pps / no-opt-ref-list-length-pps / no-multi-pass-opt-rps / scenecut-bias=0.05 / no-opt-cu-delta-qp / aq-motion / hdr / hdr-opt / no-dhdr10-opt / no-idr-recovery-sei / analysis-reuse-level=5 / scale-factor=0 / refine-intra=0 / refine-inter=0 / refine-mv=0 / refine-ctu-distortion=0 / no-limit-sao / ctu-info=0 / no-lowpass-dct / refine-analysis-type=0 / copy-pic=1 / max-ausize-factor=1.0 / no-dynamic-refine / no-single-sei / no-hevc-aq / no-svt / qp-adaptation-range=1.00
Default : Yes
Forced : No
Color range : Limited
Color primaries : BT.2020
Transfer characteristics : PQ
Matrix coefficients : BT.2020 non-constant
Mastering display color primaries : Display P3
Mastering display luminance : min: 0.0050 cd/m2, max: 1000 cd/m2
Maximum Content Light Level : 1000 cd/m2
Maximum Frame-Average Light Level : 98 cd/m2

Audio #1
ID : 2
Format : AAC LC
Format/Info : Advanced Audio Codec Low Complexity
Codec ID : A_AAC-2
Duration : 1 h 45 min
Bit rate : 662 kb/s
Channel(s) : 8 channels
Channel layout : C L R Ls Rs Lb Rb LFE
Sampling rate : 48.0 kHz
Frame rate : 46.875 FPS (1024 SPF)
Compression mode : Lossy
Delay relative to video : 20 ms
Stream size : 500 MiB (4%)
Language : English
Default : Yes
Forced : No

Audio #2
ID : 3
Format : AAC LC SBR
Format/Info : Advanced Audio Codec Low Complexity with Spectral Band Replication
Commercial name : HE-AAC
Format settings : Explicit
Codec ID : A_AAC-2
Duration : 1 h 45 min
Bit rate : 66.2 kb/s
Channel(s) : 2 channels
Channel layout : L R
Sampling rate : 48.0 kHz
Frame rate : 23.438 FPS (2048 SPF)
Compression mode : Lossy
Delay relative to video : 40 ms
Stream size : 49.6 MiB (0%)
Title : Commentary
Language : English
Default : No
Forced : No

Text #1
ID : 4
Format : VobSub
Muxing mode : zlib
Codec ID : S_VOBSUB
Codec ID/Info : Picture based subtitle format used on DVDs
Duration : 1 h 38 min
Bit rate : 10.6 kb/s
Count of elements : 1364
Stream size : 7.45 MiB (0%)
Language : English
Default : No
Forced : No

Text #2
ID : 5
Format : VobSub
Muxing mode : zlib
Codec ID : S_VOBSUB
Codec ID/Info : Picture based subtitle format used on DVDs
Duration : 1 h 43 min
Bit rate : 10.2 kb/s
Count of elements : 1283
Stream size : 7.54 MiB (0%)
Language : French
Default : No
Forced : No

Text #3
ID : 6
Format : VobSub
Muxing mode : zlib
Codec ID : S_VOBSUB
Codec ID/Info : Picture based subtitle format used on DVDs
Duration : 1 h 43 min
Bit rate : 5 805 b/s
Count of elements : 1123
Stream size : 4.31 MiB (0%)
Language : Japanese
Default : No
Forced : No

Text #4
ID : 7
Format : VobSub
Muxing mode : zlib
Codec ID : S_VOBSUB
Codec ID/Info : Picture based subtitle format used on DVDs
Duration : 1 h 45 min
Bit rate : 8 605 b/s
Count of elements : 1301
Stream size : 6.46 MiB (0%)
Language : Portuguese
Default : No
Forced : No

Text #5
ID : 8
Format : VobSub
Muxing mode : zlib
Codec ID : S_VOBSUB
Codec ID/Info : Picture based subtitle format used on DVDs
Duration : 1 h 43 min
Bit rate : 8 596 b/s
Count of elements : 1280
Stream size : 6.38 MiB (0%)
Language : Spanish
Default : No
Forced : No

Menu
00:00:00.000 : en:Chapter 01
00:03:51.272 : en:Chapter 02
00:08:56.702 : en:Chapter 03
00:11:30.523 : en:Chapter 04
00:13:49.411 : en:Chapter 05
00:15:24.882 : en:Chapter 06
00:17:19.038 : en:Chapter 07
00:21:38.046 : en:Chapter 08
00:25:00.499 : en:Chapter 09
00:27:07.375 : en:Chapter 10
00:29:09.080 : en:Chapter 11
00:33:47.108 : en:Chapter 12
00:35:35.299 : en:Chapter 13
00:39:30.534 : en:Chapter 14
00:42:32.550 : en:Chapter 15
00:46:14.438 : en:Chapter 16
00:52:26.518 : en:Chapter 17
00:54:03.740 : en:Chapter 18
00:58:00.602 : en:Chapter 19
00:59:09.337 : en:Chapter 20
01:03:15.792 : en:Chapter 21
01:05:52.782 : en:Chapter 22
01:09:37.631 : en:Chapter 23
01:11:03.384 : en:Chapter 24
01:12:30.262 : en:Chapter 25
01:15:24.102 : en:Chapter 26
01:17:48.246 : en:Chapter 27
01:20:39.334 : en:Chapter 28
01:22:28.777 : en:Chapter 29
01:26:25.680 : en:Chapter 30
01:28:08.116 : en:Chapter 31
01:30:02.146 : en:Chapter 32
01:34:17.818 : en:Chapter 33
01:37:32.263 : en:Chapter 34

 

(He/Him) He's BvSRips. I dedicate myself to sharing files on this blog for free. But it is difficult to maintain the links online for a long time, they are denounced and deleted, reuploading costs more work, that is why a section for VIP users was created, where they can download all the files published 100% in MEGA, as premium, without spend more. I would greatly appreciate your collaboration so that this blog remains online for a longer time.

BUY VIP HERE

You may also like...

Leave a Reply

Your email address will not be published. Required fields are marked *