Endeavour All Season | 720p & 1080p AMZN WEBRip x265-BvS

Set in the mid-Sixties, this prequel centers around the early career of Endeavour Morse (Shaun Evans). After leaving his Oxford college without a degree, and spending a short time as a cipher clerk, Morse joins the police, working under veteran DI Fred Thursday (Roger Allam). This show was preceded by “Inspector Morse” (1987-2000) starring John Thaw and Kevin Whately.

Links: HOMEPAGE – TVDB

Note: In English with English Selectable Subtitles

DOWNLOAD

VIP (GOOGLE DRIVE)

This content is reserved for registered users. Sign up here o login to be able to see it.

FREE

  • SEASON 1: 720p x265 (ONLY VIP)
  • SEASON 2: 720p x265 (ONLY VIP)
  • SEASON 3: 720p x265 (ONLY VIP)
  • SEASON 4: 720p x265 (ONLY VIP)
  • SEASON 5: 720p x265 (ONLY VIP)
  • SEASON 6: 720p x265 (ONLY VIP)
  • SEASON 7: 720p x265 (ONLY VIP)

NFO

720p.x265-BvS

General
Unique ID : 199096300510746797875059987040517958099 (0x95C88D7D8D9136868819D478D61F29D3)
Complete name : Endeavour.S01E01.720p.WEB-DL.x265-.mkv
Format : Matroska
Format version : Version 4
File size : 244 MiB
Duration : 1 h 28 min
Overall bit rate : 384 kb/s
Movie name : Encoded by Hunter | Crazy4TV.com
Encoded date : UTC 2017-07-28 02:00:13
Writing application : mkvmerge v13.0.0 (‘The Juggler’) 64bit
Writing library : libebml v1.3.4 + libmatroska v1.4.5

Video
ID : 1
Format : HEVC
Format/Info : High Efficiency Video Coding
Format profile : [email protected]@Main
Codec ID : V_MPEGH/ISO/HEVC
Duration : 1 h 28 min
Bit rate : 286 kb/s
Width : 1 280 pixels
Height : 718 pixels
Display aspect ratio : 16:9
Frame rate mode : Constant
Frame rate : 25.000 FPS
Color space : YUV
Chroma subsampling : 4:2:0
Bit depth : 8 bits
Bits/(Pixel*Frame) : 0.012
Stream size : 182 MiB (75%)
Writing library : x265 2.1:[Windows][GCC 5.3.1][64 bit] 8bit
Encoding settings : wpp / ctu=64 / min-cu-size=8 / max-tu-size=32 / tu-intra-depth=1 / tu-inter-depth=1 / me=1 / subme=2 / merange=57 / no-rect / no-amp / max-merge=2 / temporal-mvp / no-early-skip / rskip / rdpenalty=0 / no-tskip / no-tskip-fast / no-strong-intra-smoothing / no-lossless / no-cu-lossless / no-constrained-intra / fast-intra / open-gop / no-temporal-layers / interlace=0 / keyint=250 / min-keyint=25 / scenecut=40 / rc-lookahead=15 / lookahead-slices=4 / bframes=4 / bframe-bias=0 / b-adapt=0 / ref=3 / limit-refs=3 / no-limit-modes / weightp / no-weightb / aq-mode=1 / qg-size=32 / aq-strength=0.00 / cbqpoffs=0 / crqpoffs=0 / rd=2 / psy-rd=0.00 / rdoq-level=0 / psy-rdoq=0.00 / log2-max-poc-lsb=8 / no-rd-refine / signhide / deblock=0:0 / sao / no-sao-non-deblock / b-pyramid / cutree / no-intra-refresh / rc=crf / crf=25.0 / qcomp=0.60 / qpmin=0 / qpmax=69 / qpstep=4 / ipratio=1.40 / pbratio=1.30
Default : Yes
Forced : No
Color range : Limited
Color primaries : BT.709
Transfer characteristics : BT.709
Matrix coefficients : BT.709

Audio
ID : 2
Format : AC-3
Format/Info : Audio Coding 3
Commercial name : Dolby Digital
Codec ID : A_AC3
Duration : 1 h 28 min
Bit rate mode : Constant
Bit rate : 96.0 kb/s
Channel(s) : 2 channels
Channel layout : L R
Sampling rate : 48.0 kHz
Frame rate : 31.250 FPS (1536 SPF)
Compression mode : Lossy
Delay relative to video : -5 ms
Stream size : 61.1 MiB (25%)
Title : Stereo
Language : English
Service kind : Complete Main
Default : Yes
Forced : No

Text
ID : 3
Format : UTF-8
Codec ID : S_TEXT/UTF8
Codec ID/Info : UTF-8 Plain Text
Duration : 9 s 873 ms
Bit rate : 68 b/s
Count of elements : 2
Stream size : 84.0 Bytes (0%)
Default : Yes
Forced : No

Leave a Reply

Your email address will not be published. Required fields are marked *