The Flight Attendant All Season | 720p & 1080p AMZN WEBRip x265-BvS

Following his fall from grace in London and a stint in rehab, eccentric Sherlock escapes to Manhattan where his wealthy father forces him to live with his worst nightmare – a sober companion, Dr. Watson. A successful surgeon until she lost a patient and her license three years ago, Watson views her current job as another opportunity to help people, as well as paying a penance. Holmes resumes his work as a police consultant in New York City and Watson has no choice but to accompany her irascible new charge on his jobs. But Sherlock finds her medical background helpful, and Watson realizes she has a knack for playing investigator. With the mischievous Sherlock Holmes now running free in New York solving crimes, it’s simple deduction that he’s going to need someone to keep him grounded, and it’s elementary that it’s a job for Watson.

Links: HOMEPAGE – TV.com

Note: In English with English Selectable Subtitles

DOWNLOAD

VIP (GOOGLE DRIVE)

This content is reserved for registered users. Sign up here o login to be able to see it.

FREE

  • SEASON 1: 720p x265 (ONLY VIP)
  • SEASON 2: 720p x265 (ONLY VIP)
  • SEASON 3: 720p x265 (ONLY VIP)
  • SEASON 4: 720p x265 (ONLY VIP)
  • SEASON 5: 720p x265 (ONLY VIP)
  • SEASON 6: 720p x265 (ONLY VIP)
  • SEASON 7: 720p x265 (ONLY VIP)

NFO

WEBRip.x264-ION10

 

720p.x265-BvS

General
Unique ID : 178507358581594437517392229450463719499 (0x864B4447AB2A3F8BB09B3B4F176A304B)
Complete name : Elementary.S01E01.720p.WEB-DL.x265.mkv
Format : Matroska
Format version : Version 4
File size : 234 MiB
Duration : 45 min 44 s
Overall bit rate : 717 kb/s
Encoded date : UTC 2018-12-30 12:03:22
Writing application : mkvmerge v9.9.0 (‘Pick Up’) 64bit
Writing library : libebml v1.3.4 + libmatroska v1.4.5

Video
ID : 1
Format : HEVC
Format/Info : High Efficiency Video Coding
Format profile : [email protected]@Main
Codec ID : V_MPEGH/ISO/HEVC
Duration : 45 min 43 s
Bit rate : 651 kb/s
Width : 1 280 pixels
Height : 720 pixels
Display aspect ratio : 16:9
Frame rate mode : Constant
Frame rate : 23.976 (24000/1001) FPS
Color space : YUV
Chroma subsampling : 4:2:0
Bit depth : 8 bits
Bits/(Pixel*Frame) : 0.029
Stream size : 213 MiB (91%)
Default : Yes
Forced : No
Color range : Limited
Color primaries : BT.709
Transfer characteristics : BT.709
Matrix coefficients : BT.709

Audio
ID : 2
Format : AAC LC SBR
Format/Info : Advanced Audio Codec Low Complexity with Spectral Band Replication
Commercial name : HE-AAC
Format settings : Explicit
Codec ID : A_AAC-2
Duration : 45 min 44 s
Bit rate : 64.0 kb/s
Channel(s) : 2 channels
Channel layout : L R
Sampling rate : 48.0 kHz
Frame rate : 23.438 FPS (2048 SPF)
Compression mode : Lossy
Delay relative to video : -4 ms
Stream size : 20.9 MiB (9%)
Default : Yes
Forced : No

Text
ID : 3
Format : UTF-8
Codec ID : S_TEXT/UTF8
Codec ID/Info : UTF-8 Plain Text
Duration : 45 min 7 s
Bit rate : 94 b/s
Count of elements : 956
Stream size : 31.2 KiB (0%)
Default : Yes
Forced : No

1080p.x265-BvS

General
Unique ID : 110945827449873368092442979416171937137 (0x5377639DF62CC3D29DB6FA2276ACFD71)
Complete name : Elementary.S07E01.The.Further.Adventures.1080p.10bit.WEBRip.6CH.x265.HEVC.mkv
Format : Matroska
Format version : Version 4
File size : 444 MiB
Duration : 43 min 9 s
Overall bit rate : 1 438 kb/s
Movie name : PSArips.com | Elementary.S07E01.The.Further.Adventures.1080p.10bit.WEBRip.6CH.x265.HEVC-PSA
Encoded date : UTC 2019-05-24 10:09:23
Writing application : mkvmerge v34.0.0 (‘Sight and Seen’) 64-bit
Writing library : libebml v1.3.7 + libmatroska v1.5.0

Video
ID : 1
Format : HEVC
Format/Info : High Efficiency Video Coding
Format profile : Main [email protected]@Main
Codec ID : V_MPEGH/ISO/HEVC
Duration : 43 min 9 s
Bit rate : 1 223 kb/s
Width : 1 920 pixels
Height : 1 080 pixels
Display aspect ratio : 16:9
Frame rate mode : Constant
Frame rate : 24.000 FPS
Color space : YUV
Chroma subsampling : 4:2:0
Bit depth : 10 bits
Bits/(Pixel*Frame) : 0.025
Stream size : 377 MiB (85%)
Default : Yes
Forced : No

Audio
ID : 2
Format : AAC LC SBR
Format/Info : Advanced Audio Codec Low Complexity with Spectral Band Replication
Commercial name : HE-AAC
Format settings : Explicit
Codec ID : A_AAC-2
Duration : 43 min 9 s
Bit rate : 213 kb/s
Channel(s) : 6 channels
Channel layout : C L R Ls Rs LFE
Sampling rate : 48.0 kHz
Frame rate : 23.438 FPS (2048 SPF)
Compression mode : Lossy
Delay relative to video : 23 ms
Stream size : 65.8 MiB (15%)
Language : English
Default : Yes
Forced : No

Text
ID : 3
Format : UTF-8
Codec ID : S_TEXT/UTF8
Codec ID/Info : UTF-8 Plain Text
Duration : 42 min 29 s
Bit rate : 104 b/s
Count of elements : 974
Stream size : 32.6 KiB (0%)
Language : English
Default : Yes
Forced : No

Leave a Reply

Your email address will not be published. Required fields are marked *