El Chapo All Season | 720p & 1080p AMZN WEBRip x265-BvS

A look at the life of notorious drug kingpin, El Chapo, from his early days in the 1980s working for the Guadalajara Cartel, to his rise to power during the ’90s and his ultimate downfall in 2016.

Links: HOMEPAGE – TVDB

Note: In English/Spanish with English/French Selectable Subtitles

DOWNLOAD

VIP (GOOGLE DRIVE)

This content is reserved for registered users. Sign up here o login to be able to see it.

FREE

  • SEASON 1: 720p x265 (ONLY VIP)
  • SEASON 2: 720p x265 (ONLY VIP)
  • SEASON 2: 1080p x265 (ONLY VIP)
  • SEASON 3: 720p x265 (ONLY VIP)
  • SEASON 3: 1080p x265 (ONLY VIP)

NFO

WEBRip.x264-ION10

 

720p.x265-BvS

General
Unique ID : 49787719778239726359920037265976454570 (0x2574C41B1726D3FA60DB37C408A1EDAA)
Complete name : El.Chapo.S02E01.DUAL-AUDIO.SPA-ENG.720p.10bit.WEBRip.2CH.x265.HEVC.mkv
Format : Matroska
Format version : Version 4
File size : 269 MiB
Duration : 52 min 27 s
Overall bit rate : 718 kb/s
Movie name : PSArips.com | El.Chapo.S02E01.DUAL-AUDIO.SPA-ENG.720p.10bit.WEBRip.2CH.x265.HEVC-PSA
Encoded date : UTC 2017-12-18 06:29:04
Writing application : mkvmerge v19.0.0 (‘Brave Captain’) 64-bit
Writing library : libebml v1.3.5 + libmatroska v1.4.8

Video
ID : 1
Format : HEVC
Format/Info : High Efficiency Video Coding
Format profile : Main [email protected]@Main
Codec ID : V_MPEGH/ISO/HEVC
Duration : 52 min 27 s
Bit rate : 565 kb/s
Width : 1 280 pixels
Height : 672 pixels
Display aspect ratio : 1.905
Frame rate mode : Constant
Frame rate : 23.976 (24000/1001) FPS
Color space : YUV
Chroma subsampling : 4:2:0
Bit depth : 10 bits
Bits/(Pixel*Frame) : 0.027
Stream size : 212 MiB (79%)
Default : Yes
Forced : No

Audio #1
ID : 2
Format : AAC LC SBR
Format/Info : Advanced Audio Codec Low Complexity with Spectral Band Replication
Commercial name : HE-AAC
Format settings : Explicit
Codec ID : A_AAC-2
Duration : 52 min 27 s
Bit rate : 74.8 kb/s
Channel(s) : 2 channels
Channel layout : L R
Sampling rate : 48.0 kHz
Frame rate : 23.438 FPS (2048 SPF)
Compression mode : Lossy
Delay relative to video : 23 ms
Stream size : 28.1 MiB (10%)
Language : Spanish
Default : Yes
Forced : No

Audio #2
ID : 3
Format : AAC LC SBR
Format/Info : Advanced Audio Codec Low Complexity with Spectral Band Replication
Commercial name : HE-AAC
Format settings : Explicit
Codec ID : A_AAC-2
Duration : 52 min 27 s
Bit rate : 75.4 kb/s
Channel(s) : 2 channels
Channel layout : L R
Sampling rate : 48.0 kHz
Frame rate : 23.438 FPS (2048 SPF)
Compression mode : Lossy
Delay relative to video : 23 ms
Stream size : 28.3 MiB (11%)
Language : English
Default : No
Forced : No

Text #1
ID : 4
Format : UTF-8
Codec ID : S_TEXT/UTF8
Codec ID/Info : UTF-8 Plain Text
Duration : 51 min 3 s
Bit rate : 39 b/s
Count of elements : 451
Stream size : 14.7 KiB (0%)
Language : English
Default : Yes
Forced : No

Text #2
ID : 5
Format : UTF-8
Codec ID : S_TEXT/UTF8
Codec ID/Info : UTF-8 Plain Text
Duration : 50 min 9 s
Bit rate : 46 b/s
Count of elements : 493
Stream size : 17.0 KiB (0%)
Language : Spanish
Default : No
Forced : No

Text #3
ID : 6
Format : UTF-8
Codec ID : S_TEXT/UTF8
Codec ID/Info : UTF-8 Plain Text
Duration : 51 min 39 s
Bit rate : 49 b/s
Count of elements : 447
Stream size : 18.6 KiB (0%)
Language : French
Default : No
Forced : No

Text #4
ID : 7
Format : UTF-8
Codec ID : S_TEXT/UTF8
Codec ID/Info : UTF-8 Plain Text
Duration : 51 min 40 s
Bit rate : 42 b/s
Count of elements : 421
Stream size : 16.0 KiB (0%)
Language : Polish
Default : No
Forced : No

Text #5
ID : 8
Format : UTF-8
Codec ID : S_TEXT/UTF8
Codec ID/Info : UTF-8 Plain Text
Duration : 51 min 47 s
Bit rate : 37 b/s
Count of elements : 436
Stream size : 14.3 KiB (0%)
Language : Portuguese
Default : No
Forced : No

1080p.x265-BvS

General
Unique ID : 104960776450820453298680721723558548619 (0x4EF6B5D1FAA7108A9C109B5A5B21548B)
Complete name : El.Chapo.S03E01.DUAL-AUDIO.SPA-ENG.1080p.10bit.WEBRip.6CH.x265.HEVC.mkv
Format : Matroska
Format version : Version 4
File size : 594 MiB
Duration : 41 min 18 s
Overall bit rate : 2 010 kb/s
Movie name : PSArips.com | El.Chapo.S03E01.DUAL-AUDIO.SPA-ENG.1080p.10bit.WEBRip.6CH.x265.HEVC-PSA
Encoded date : UTC 2018-08-06 05:59:45
Writing application : mkvmerge v25.0.0 (‘Prog Noir’) 64-bit
Writing library : libebml v1.3.6 + libmatroska v1.4.9

Video
ID : 1
Format : HEVC
Format/Info : High Efficiency Video Coding
Format profile : Main [email protected]@Main
Codec ID : V_MPEGH/ISO/HEVC
Duration : 41 min 18 s
Bit rate : 1 586 kb/s
Width : 1 920 pixels
Height : 1 016 pixels
Display aspect ratio : 1.890
Frame rate mode : Constant
Frame rate : 23.976 (24000/1001) FPS
Color space : YUV
Chroma subsampling : 4:2:0
Bit depth : 10 bits
Bits/(Pixel*Frame) : 0.034
Stream size : 469 MiB (79%)
Default : Yes
Forced : No

Audio #1
ID : 2
Format : AAC LC SBR
Format/Info : Advanced Audio Codec Low Complexity with Spectral Band Replication
Commercial name : HE-AAC
Format settings : Explicit
Codec ID : A_AAC-2
Duration : 41 min 18 s
Bit rate : 211 kb/s
Channel(s) : 6 channels
Channel layout : C L R Ls Rs LFE
Sampling rate : 48.0 kHz
Frame rate : 23.438 FPS (2048 SPF)
Compression mode : Lossy
Delay relative to video : 23 ms
Stream size : 62.3 MiB (10%)
Language : Spanish
Default : Yes
Forced : No

Audio #2
ID : 3
Format : AAC LC SBR
Format/Info : Advanced Audio Codec Low Complexity with Spectral Band Replication
Commercial name : HE-AAC
Format settings : Explicit
Codec ID : A_AAC-2
Duration : 41 min 18 s
Bit rate : 209 kb/s
Channel(s) : 6 channels
Channel layout : C L R Ls Rs LFE
Sampling rate : 48.0 kHz
Frame rate : 23.438 FPS (2048 SPF)
Compression mode : Lossy
Delay relative to video : 23 ms
Stream size : 61.7 MiB (10%)
Language : English
Default : No
Forced : No

Text #1
ID : 4
Format : UTF-8
Codec ID : S_TEXT/UTF8
Codec ID/Info : UTF-8 Plain Text
Duration : 40 min 1 s
Bit rate : 43 b/s
Count of elements : 367
Stream size : 12.8 KiB (0%)
Language : English
Default : Yes
Forced : No

Text #2
ID : 5
Format : UTF-8
Codec ID : S_TEXT/UTF8
Codec ID/Info : UTF-8 Plain Text
Duration : 39 min 54 s
Bit rate : 4 b/s
Count of elements : 38
Stream size : 1.21 KiB (0%)
Language : English
Default : No
Forced : Yes

Text #3
ID : 6
Format : UTF-8
Codec ID : S_TEXT/UTF8
Codec ID/Info : UTF-8 Plain Text
Duration : 39 min 40 s
Bit rate : 56 b/s
Count of elements : 528
Stream size : 16.5 KiB (0%)
Language : Spanish
Default : No
Forced : No

Text #4
ID : 7
Format : UTF-8
Codec ID : S_TEXT/UTF8
Codec ID/Info : UTF-8 Plain Text
Duration : 40 min 24 s
Bit rate : 61 b/s
Count of elements : 411
Stream size : 18.1 KiB (0%)
Language : French
Default : No
Forced : No

Text #5
ID : 8
Format : UTF-8
Codec ID : S_TEXT/UTF8
Codec ID/Info : UTF-8 Plain Text
Duration : 40 min 26 s
Bit rate : 49 b/s
Count of elements : 347
Stream size : 14.7 KiB (0%)
Language : Norwegian
Default : No
Forced : No

Text #6
ID : 9
Format : UTF-8
Codec ID : S_TEXT/UTF8
Codec ID/Info : UTF-8 Plain Text
Duration : 40 min 26 s
Bit rate : 58 b/s
Count of elements : 387
Stream size : 17.3 KiB (0%)
Language : Danish
Default : No
Forced : No

Text #7
ID : 10
Format : UTF-8
Codec ID : S_TEXT/UTF8
Codec ID/Info : UTF-8 Plain Text
Duration : 39 min 45 s
Bit rate : 60 b/s
Count of elements : 375
Stream size : 17.5 KiB (0%)
Language : Italian
Default : No
Forced : No

Text #8
ID : 11
Format : UTF-8
Codec ID : S_TEXT/UTF8
Codec ID/Info : UTF-8 Plain Text
Duration : 40 min 33 s
Bit rate : 50 b/s
Count of elements : 392
Stream size : 15.0 KiB (0%)
Language : Portuguese
Default : No
Forced : No

Text #9
ID : 12
Format : UTF-8
Codec ID : S_TEXT/UTF8
Codec ID/Info : UTF-8 Plain Text
Duration : 40 min 33 s
Bit rate : 87 b/s
Count of elements : 402
Stream size : 25.9 KiB (0%)
Language : Greek
Default : No
Forced : No

Text #10
ID : 13
Format : UTF-8
Codec ID : S_TEXT/UTF8
Codec ID/Info : UTF-8 Plain Text
Duration : 40 min 26 s
Bit rate : 57 b/s
Count of elements : 376
Stream size : 16.9 KiB (0%)
Language : German
Default : No
Forced : No

Text #11
ID : 14
Format : UTF-8
Codec ID : S_TEXT/UTF8
Codec ID/Info : UTF-8 Plain Text
Duration : 40 min 26 s
Bit rate : 54 b/s
Count of elements : 352
Stream size : 16.0 KiB (0%)
Language : Swedish
Default : No
Forced : No

Text #12
ID : 15
Format : UTF-8
Codec ID : S_TEXT/UTF8
Codec ID/Info : UTF-8 Plain Text
Duration : 40 min 26 s
Bit rate : 58 b/s
Count of elements : 387
Stream size : 17.3 KiB (0%)
Language : Finnish
Default : No
Forced : No

Text #13
ID : 16
Format : UTF-8
Codec ID : S_TEXT/UTF8
Codec ID/Info : UTF-8 Plain Text
Duration : 40 min 26 s
Bit rate : 58 b/s
Count of elements : 396
Stream size : 17.4 KiB (0%)
Language : Turkish
Default : No
Forced : No

Leave a Reply

Your email address will not be published. Required fields are marked *