DuckTales (1987-1990) All Season | 720p & 1080p AMZN WEBRip x265-BvS

When Donald Duck decides to join the Navy, he leaves his nephews, Huey, Dewey and Louie, in the care of his cantankerous Uncle Scrooge. He is an eccentric and miserly billionare who loves to literally swim in his money that is held in his corporate headquarters/vault known as the Money Bin. While the initial meeting was less than pleasant, events soon have them, along with a newly hired nanny, her daughter and Scrooge’s stupid but skilled pilot, on countless adventures as the group goes around the world looking for treasure, or defending Scrooge’s current assets from enemies like the Beagle Boys or Magica De Spell.

Links: HOMEPAGE – TV.com

Note: In English with English Selectable Subtitles

DOWNLOAD

VIP (GOOGLE DRIVE)

This content is reserved for registered users. Sign up here o login to be able to see it.

FREE

  • SEASON 1: DVDRip x264 (ONLY VIP)
  • SEASON 2: DVDRip x264 (ONLY VIP)
  • SEASON 3: DVDRip x264 (ONLY VIP)
  • SEASON 4: DVDRip x264 (ONLY VIP)

NFO

DVDRip.x264

General
Complete name : Ducktales – S01 E01 – Don’t Give Up the Ship (480p – Proper DVDRip).mp4
Format : MPEG-4
Format profile : Base Media / Version 2
Codec ID : mp42 (isom/iso2/avc1/mp41)
File size : 205 MiB
Duration : 22 min 50 s
Overall bit rate : 1 258 kb/s
Encoded date : UTC 2019-12-28 19:48:53
Tagged date : UTC 2019-12-28 19:48:53
Writing application : HandBrake 1.0.7 2017040900

Video
ID : 1
Format : AVC
Format/Info : Advanced Video Codec
Format profile : [email protected]
Format settings : CABAC / 6 Ref Frames
Format settings, CABAC : Yes
Format settings, Reference frames : 6 frames
Codec ID : avc1
Codec ID/Info : Advanced Video Coding
Duration : 22 min 50 s
Bit rate : 1 061 kb/s
Width : 720 pixels
Height : 480 pixels
Display aspect ratio : 3:2
Frame rate mode : Variable
Frame rate : 23.976 (24000/1001) FPS
Minimum frame rate : 23.974 FPS
Maximum frame rate : 23.981 FPS
Color space : YUV
Chroma subsampling : 4:2:0
Bit depth : 8 bits
Scan type : Progressive
Bits/(Pixel*Frame) : 0.128
Stream size : 173 MiB (84%)
Writing library : x264 core 148 r2708 86b7198
Encoding settings : cabac=1 / ref=6 / deblock=1:1:1 / analyse=0x3:0x113 / me=hex / subme=7 / psy=1 / psy_rd=0.40:0.00 / mixed_ref=1 / me_range=16 / chroma_me=1 / trellis=1 / 8x8dct=1 / cqm=0 / deadzone=21,11 / fast_pskip=1 / chroma_qp_offset=-2 / threads=6 / lookahead_threads=1 / sliced_threads=0 / nr=0 / decimate=1 / interlaced=0 / bluray_compat=0 / constrained_intra=0 / bframes=5 / b_pyramid=2 / b_adapt=1 / b_bias=0 / direct=1 / weightb=1 / open_gop=0 / weightp=2 / keyint=240 / keyint_min=24 / scenecut=40 / intra_refresh=0 / rc_lookahead=40 / rc=crf / mbtree=1 / crf=19.0 / qcomp=0.60 / qpmin=0 / qpmax=69 / qpstep=4 / ip_ratio=1.40 / aq=1:0.60
Encoded date : UTC 2019-12-28 19:48:53
Tagged date : UTC 2019-12-28 19:48:53
Color range : Limited
Color primaries : BT.601 NTSC
Transfer characteristics : BT.709
Matrix coefficients : BT.601
Menus : 3
Codec configuration box : avcC

Audio
ID : 2
Format : AC-3
Format/Info : Audio Coding 3
Commercial name : Dolby Digital
Codec ID : ac-3
Duration : 22 min 49 s
Bit rate mode : Constant
Bit rate : 192 kb/s
Channel(s) : 2 channels
Channel layout : L R
Sampling rate : 48.0 kHz
Frame rate : 31.250 FPS (1536 SPF)
Compression mode : Lossy
Stream size : 31.4 MiB (15%)
Title : Stereo / Stereo
Language : English
Service kind : Complete Main
Default : Yes
Alternate group : 1
Encoded date : UTC 2019-12-28 19:48:53
Tagged date : UTC 2019-12-28 19:48:53
Menus : 3

Menu
ID : 3
Codec ID : text
Duration : 22 min 49 s
Language : English
Encoded date : UTC 2019-12-28 19:48:53
Tagged date : UTC 2019-12-28 19:48:53
Bit rate mode : CBR
Menu For : 1,2
00:00:00.000 : Chapter 1
00:11:12.130 : Chapter 2
00:16:28.779 : Chapter 3
00:22:18.504 : Chapter 4
Bit rate mode : Constant

Leave a Reply

Your email address will not be published. Required fields are marked *