Dr. Seuss’ the Grinch (2018) 2160p BluRay x265 HEVC 10bit HDR AAC 7.1 Tigole [G.DRIVE]

Dr.-Seuss'-the-Grinch-(2018)-(2160p-BluRay-x265-HEVC-10bit-HDR-AAC-7.1-Tigole)

A grumpy Grinch (Benedict Cumberbatch) plots to ruin Christmas for the village of Whoville.

Links: iMDB | Trailer

Dr. Seuss’ the Grinch (2018) 2160p BluRay x265 HEVC 10bit HDR AAC 7.1 Tigole
MKV-HEVC | 3840×1608 | ENGLISH | Subs.ENG/FRE/SPA | AAC 5.1 | 4.45GB

This content is reserved for registered users. Sign up here o login to be able to see it. Buy your VIP membership

MEGA – 1FICHIER

NFO

General
Unique ID : 157616127030205964154117643534018874862 (0x7693C30A57F997985FF0FEDBA0F90DEE)
Complete name : Dr. Seuss’ the Grinch (2018) (2160p BluRay x265 10bit HDR Tigole).mkv
Format : Matroska
Format version : Version 4
File size : 4.45 GiB
Duration : 1 h 25 min
Overall bit rate : 7 420 kb/s
Movie name : Dr. Seuss’ The Grinch
Encoded date : UTC 2020-11-19 05:47:44
Writing application : mkvmerge v38.0.0 (‘The Silent Type’) 64-bit
Writing library : libebml v1.3.9 + libmatroska v1.5.2

Video
ID : 1
Format : HEVC
Format/Info : High Efficiency Video Coding
Format profile : Main [email protected]@Main
HDR format : SMPTE ST 2086, HDR10 compatible
Codec ID : V_MPEGH/ISO/HEVC
Duration : 1 h 25 min
Bit rate : 6 612 kb/s
Width : 3 840 pixels
Height : 1 608 pixels
Display aspect ratio : 2.40:1
Frame rate mode : Constant
Frame rate : 23.976 (24000/1001) FPS
Color space : YUV
Chroma subsampling : 4:2:0
Bit depth : 10 bits
Bits/(Pixel*Frame) : 0.045
Stream size : 3.96 GiB (89%)
Writing library : x265 3.2+23-52135ffd9bcd:[Windows][GCC 9.2.0][64 bit] 10bit
Encoding settings : cpuid=1111039 / frame-threads=3 / numa-pools=8 / wpp / no-pmode / no-pme / no-psnr / no-ssim / log-level=2 / input-csp=1 / input-res=3840×1608 / interlace=0 / total-frames=123455 / level-idc=0 / high-tier=1 / uhd-bd=0 / ref=4 / no-allow-non-conformance / repeat-headers / annexb / no-aud / no-hrd / info / hash=0 / no-temporal-layers / open-gop / min-keyint=23 / keyint=250 / gop-lookahead=0 / bframes=8 / b-adapt=2 / b-pyramid / bframe-bias=0 / rc-lookahead=25 / lookahead-slices=4 / scenecut=40 / hist-scenecut=0 / radl=0 / no-splice / no-intra-refresh / ctu=64 / min-cu-size=8 / rect / no-amp / max-tu-size=32 / tu-inter-depth=1 / tu-intra-depth=1 / limit-tu=0 / rdoq-level=2 / dynamic-rd=0.00 / no-ssim-rd / signhide / no-tskip / nr-intra=0 / nr-inter=0 / no-constrained-intra / strong-intra-smoothing / max-merge=3 / limit-refs=3 / limit-modes / me=3 / subme=3 / merange=57 / temporal-mvp / no-frame-dup / no-hme / weightp / no-weightb / no-analyze-src-pics / deblock=0:0 / no-sao / no-sao-non-deblock / rd=4 / selective-sao=0 / no-early-skip / rskip / no-fast-intra / no-tskip-fast / no-cu-lossless / no-b-intra / no-splitrd-skip / rdpenalty=0 / psy-rd=2.00 / psy-rdoq=1.00 / no-rd-refine / no-lossless / cbqpoffs=0 / crqpoffs=0 / rc=crf / crf=15.0 / qcomp=0.60 / qpstep=4 / stats-write=0 / stats-read=0 / ipratio=1.40 / pbratio=1.30 / aq-mode=2 / aq-strength=1.00 / cutree / zone-count=0 / no-strict-cbr / qg-size=32 / no-rc-grain / qpmax=69 / qpmin=0 / no-const-vbv / sar=0 / overscan=0 / videoformat=5 / range=0 / colorprim=9 / transfer=16 / colormatrix=9 / chromaloc=0 / display-window=0 / master-display=G(13250,34500)B(7500,3000)R(34000,16000)WP(15635,16450)L(10000000,1) / cll=1000,407 / min-luma=0 / max-luma=1023 / log2-max-poc-lsb=8 / vui-timing-info / vui-hrd-info / slices=1 / no-opt-qp-pps / no-opt-ref-list-length-pps / no-multi-pass-opt-rps / scenecut-bias=0.05 / hist-threshold=0.01 / no-opt-cu-delta-qp / aq-motion / hdr / hdr-opt / no-dhdr10-opt / no-idr-recovery-sei / analysis-reuse-level=5 / scale-factor=0 / refine-intra=0 / refine-inter=0 / refine-mv=1 / refine-ctu-distortion=0 / no-limit-sao / ctu-info=0 / no-lowpass-dct / refine-analysis-type=0 / copy-pic=1 / max-ausize-factor=1.0 / no-dynamic-refine / no-single-sei / no-hevc-aq / no-svt / no-field / qp-adaptation-range=1.00 / no-scenecut-aware-qp
Default : Yes
Forced : No
Color range : Limited
Color primaries : BT.2020
Transfer characteristics : PQ
Matrix coefficients : BT.2020 non-constant
Mastering display color primaries : Display P3
Mastering display luminance : min: 0.0001 cd/m2, max: 1000 cd/m2
Maximum Content Light Level : 1000 cd/m2
Maximum Frame-Average Light Level : 407 cd/m2

Audio
ID : 2
Format : AAC LC
Format/Info : Advanced Audio Codec Low Complexity
Codec ID : A_AAC-2
Duration : 1 h 25 min
Bit rate : 787 kb/s
Channel(s) : 8 channels
Channel layout : C L R Ls Rs Lb Rb LFE
Sampling rate : 48.0 kHz
Frame rate : 46.875 FPS (1024 SPF)
Compression mode : Lossy
Delay relative to video : 20 ms
Stream size : 483 MiB (11%)
Language : English
Default : Yes
Forced : No

Text #1
ID : 3
Format : VobSub
Muxing mode : zlib
Codec ID : S_VOBSUB
Codec ID/Info : Picture based subtitle format used on DVDs
Duration : 1 h 20 min
Bit rate : 12.1 kb/s
Count of elements : 1304
Stream size : 6.93 MiB (0%)
Language : English
Default : No
Forced : No

Text #2
ID : 4
Format : VobSub
Muxing mode : zlib
Codec ID : S_VOBSUB
Codec ID/Info : Picture based subtitle format used on DVDs
Duration : 1 h 25 min
Bit rate : 8 155 b/s
Count of elements : 996
Stream size : 4.98 MiB (0%)
Language : French
Default : No
Forced : No

Text #3
ID : 5
Format : VobSub
Muxing mode : zlib
Codec ID : S_VOBSUB
Codec ID/Info : Picture based subtitle format used on DVDs
Duration : 1 h 24 min
Bit rate : 8 170 b/s
Count of elements : 1047
Stream size : 4.96 MiB (0%)
Language : Spanish
Default : No
Forced : No

Menu
00:00:00.000 : en:Chapter 01
00:05:40.298 : en:Chapter 02
00:10:35.676 : en:Chapter 03
00:14:14.103 : en:Chapter 04
00:17:44.897 : en:Chapter 05
00:22:19.296 : en:Chapter 06
00:26:28.336 : en:Chapter 07
00:30:45.093 : en:Chapter 08
00:34:46.584 : en:Chapter 09
00:38:37.189 : en:Chapter 10
00:44:40.260 : en:Chapter 11
00:47:27.678 : en:Chapter 12
00:52:37.112 : en:Chapter 13
00:56:33.181 : en:Chapter 14
01:01:04.619 : en:Chapter 15
01:05:34.555 : en:Chapter 16
01:07:23.456 : en:Chapter 17
01:12:14.747 : en:Chapter 18
01:14:12.781 : en:Chapter 19
01:18:08.308 : en:Chapter 20

(He/Him) He's BvSRips. I dedicate myself to sharing files on this blog for free. But it is difficult to maintain the links online for a long time, they are denounced and deleted, reuploading costs more work, that is why a section for VIP users was created, where they can download all the files published 100% in MEGA, as premium, without spend more. I would greatly appreciate your collaboration so that this blog remains online for a longer time.

BUY VIP HERE

You may also like...

Leave a Reply

Your email address will not be published. Required fields are marked *