Die Hard (1988) 2160p BluRay x265 HEVC 10bit HDR AAC 5.1 Tigole [G.DRIVE]

Die-Hard-(1988)-2160p-BluRay-x265-HEVC-10bit-HDR-AAC-5.1-Tigole

An NYPD officer tries to save his wife and several others taken hostage by German terrorists during a Christmas party at the Nakatomi Plaza in Los Angeles.

Links: iMDB Trailer

Die Hard (1988) 2160p BluRay x265 HEVC 10bit HDR AAC 5.1 Tigole
MKV-HEVC | 3840×1608 | ENGLISH | Subs.ENG/FRE/SPA | AAC 5.1 | 17.10GB

This content is reserved for registered users. Sign up here o login to be able to see it. Buy your VIP membership

MEGA – 1FICHIER

NFO

General
Unique ID : 160666266380393144685268052774269250241 (0x78DF32855D7584983D33593720F46AC1)
Complete name : Die Hard (1988) (2160p BluRay x265 10bit HDR Tigole).mkv
Format : Matroska
Format version : Version 4
File size : 17.1 GiB
Duration : 2 h 12 min
Overall bit rate : 18.5 Mb/s
Movie name : Die Hard
Encoded date : UTC 2019-02-19 15:22:07
Writing application : mkvmerge v26.0.0 (‘In The Game’) 64-bit
Writing library : libebml v1.3.6 + libmatroska v1.4.9

Video
ID : 1
Format : HEVC
Format/Info : High Efficiency Video Coding
Format profile : Main [email protected]@Main
HDR format : SMPTE ST 2086, HDR10 compatible
Codec ID : V_MPEGH/ISO/HEVC
Duration : 2 h 12 min
Bit rate : 17.6 Mb/s
Width : 3 840 pixels
Height : 1 608 pixels
Display aspect ratio : 2.40:1
Frame rate mode : Constant
Frame rate : 23.976 (24000/1001) FPS
Color space : YUV
Chroma subsampling : 4:2:0
Bit depth : 10 bits
Bits/(Pixel*Frame) : 0.119
Stream size : 16.3 GiB (95%)
Writing library : x265 2.9+14-3023bd8b05c0:[Windows][GCC 8.2.1][64 bit] 10bit
Encoding settings : cpuid=1111039 / frame-threads=3 / numa-pools=8 / wpp / no-pmode / no-pme / no-psnr / no-ssim / log-level=2 / input-csp=1 / input-res=3840×1608 / interlace=0 / total-frames=190056 / level-idc=0 / high-tier=1 / uhd-bd=0 / ref=4 / no-allow-non-conformance / repeat-headers / annexb / no-aud / no-hrd / info / hash=0 / no-temporal-layers / open-gop / min-keyint=23 / keyint=250 / gop-lookahead=0 / bframes=4 / b-adapt=2 / b-pyramid / bframe-bias=0 / rc-lookahead=25 / lookahead-slices=4 / scenecut=40 / radl=0 / no-splice / no-intra-refresh / ctu=64 / min-cu-size=8 / rect / no-amp / max-tu-size=32 / tu-inter-depth=1 / tu-intra-depth=1 / limit-tu=0 / rdoq-level=2 / dynamic-rd=0.00 / no-ssim-rd / signhide / no-tskip / nr-intra=0 / nr-inter=0 / no-constrained-intra / strong-intra-smoothing / max-merge=3 / limit-refs=3 / limit-modes / me=3 / subme=3 / merange=57 / temporal-mvp / weightp / no-weightb / no-analyze-src-pics / deblock=0:0 / sao / no-sao-non-deblock / rd=4 / no-early-skip / rskip / no-fast-intra / no-tskip-fast / no-cu-lossless / no-b-intra / no-splitrd-skip / rdpenalty=0 / psy-rd=2.00 / psy-rdoq=1.00 / no-rd-refine / no-lossless / cbqpoffs=0 / crqpoffs=0 / rc=abr / bitrate=17500 / qcomp=0.60 / qpstep=4 / stats-write=0 / stats-read=2 / cplxblur=20.0 / qblur=0.5 / ipratio=1.40 / pbratio=1.30 / aq-mode=2 / aq-strength=1.00 / cutree / zone-count=0 / no-strict-cbr / qg-size=32 / no-rc-grain / qpmax=69 / qpmin=0 / no-const-vbv / sar=0 / overscan=0 / videoformat=5 / range=0 / colorprim=9 / transfer=16 / colormatrix=9 / chromaloc=0 / display-window=0 / master-display=G(13250,34500)B(7500,3000)R(34000,16000)WP(15635,16450)L(10000000,50) / max-cll=0,0 / min-luma=0 / max-luma=1023 / log2-max-poc-lsb=8 / vui-timing-info / vui-hrd-info / slices=1 / no-opt-qp-pps / no-opt-ref-list-length-pps / no-multi-pass-opt-rps / scenecut-bias=0.05 / no-opt-cu-delta-qp / aq-motion / hdr / hdr-opt / no-dhdr10-opt / no-idr-recovery-sei / analysis-reuse-level=5 / scale-factor=0 / refine-intra=0 / refine-inter=0 / refine-mv=0 / no-limit-sao / ctu-info=0 / no-lowpass-dct / refine-mv-type=0 / copy-pic=1 / max-ausize-factor=1.0 / no-dynamic-refine / no-single-sei
Default : Yes
Forced : No
Color range : Limited
Color primaries : BT.2020
Transfer characteristics : PQ
Matrix coefficients : BT.2020 non-constant
Mastering display color primaries : Display P3
Mastering display luminance : min: 0.0050 cd/m2, max: 1000 cd/m2

Audio #1
ID : 2
Format : AAC LC
Format/Info : Advanced Audio Codec Low Complexity
Codec ID : A_AAC-2
Duration : 2 h 12 min
Bit rate : 596 kb/s
Channel(s) : 6 channels
Channel layout : C L R Ls Rs LFE
Sampling rate : 48.0 kHz
Frame rate : 46.875 FPS (1024 SPF)
Compression mode : Lossy
Delay relative to video : 20 ms
Stream size : 563 MiB (3%)
Language : English
Default : Yes
Forced : No

Audio #2
ID : 3
Format : AAC LC SBR
Format/Info : Advanced Audio Codec Low Complexity with Spectral Band Replication
Commercial name : HE-AAC
Format settings : Explicit
Codec ID : A_AAC-2
Duration : 2 h 12 min
Bit rate : 66.2 kb/s
Channel(s) : 2 channels
Channel layout : L R
Sampling rate : 48.0 kHz
Frame rate : 23.438 FPS (2048 SPF)
Compression mode : Lossy
Delay relative to video : 40 ms
Stream size : 62.3 MiB (0%)
Title : Commentary 1
Language : English
Default : No
Forced : No

Audio #3
ID : 4
Format : AAC LC SBR
Format/Info : Advanced Audio Codec Low Complexity with Spectral Band Replication
Commercial name : HE-AAC
Format settings : Explicit
Codec ID : A_AAC-2
Duration : 2 h 12 min
Bit rate : 66.2 kb/s
Channel(s) : 2 channels
Channel layout : L R
Sampling rate : 48.0 kHz
Frame rate : 23.438 FPS (2048 SPF)
Compression mode : Lossy
Delay relative to video : 40 ms
Stream size : 62.4 MiB (0%)
Title : Commentary 2
Language : English
Default : No
Forced : No

Text #1
ID : 5
Format : VobSub
Muxing mode : zlib
Codec ID : S_VOBSUB
Codec ID/Info : Picture based subtitle format used on DVDs
Duration : 2 h 7 min
Bit rate : 8 848 b/s
Count of elements : 1402
Stream size : 8.05 MiB (0%)
Language : English
Default : No
Forced : No

Text #2
ID : 6
Format : VobSub
Muxing mode : zlib
Codec ID : S_VOBSUB
Codec ID/Info : Picture based subtitle format used on DVDs
Duration : 2 h 12 min
Bit rate : 16.6 kb/s
Count of elements : 1623
Stream size : 15.7 MiB (0%)
Title : Commentary 1
Language : English
Default : No
Forced : No

Text #3
ID : 7
Format : VobSub
Muxing mode : zlib
Codec ID : S_VOBSUB
Codec ID/Info : Picture based subtitle format used on DVDs
Duration : 2 h 10 min
Bit rate : 5 675 b/s
Count of elements : 555
Stream size : 5.29 MiB (0%)
Title : Commentary 2
Language : English
Default : No
Forced : No

Text #4
ID : 8
Format : VobSub
Muxing mode : zlib
Codec ID : S_VOBSUB
Codec ID/Info : Picture based subtitle format used on DVDs
Duration : 2 h 9 min
Bit rate : 20.0 kb/s
Count of elements : 1876
Stream size : 18.5 MiB (0%)
Title : Commentary 3
Language : English
Default : No
Forced : No

Text #5
ID : 9
Format : VobSub
Muxing mode : zlib
Codec ID : S_VOBSUB
Codec ID/Info : Picture based subtitle format used on DVDs
Duration : 2 h 6 min
Bit rate : 6 564 b/s
Count of elements : 1425
Stream size : 5.92 MiB (0%)
Language : Chinese
Default : No
Forced : No

Text #6
ID : 10
Format : VobSub
Muxing mode : zlib
Codec ID : S_VOBSUB
Codec ID/Info : Picture based subtitle format used on DVDs
Duration : 2 h 11 min
Bit rate : 7 448 b/s
Count of elements : 1358
Stream size : 6.99 MiB (0%)
Language : Czech
Default : No
Forced : No

Text #7
ID : 11
Format : VobSub
Muxing mode : zlib
Codec ID : S_VOBSUB
Codec ID/Info : Picture based subtitle format used on DVDs
Duration : 2 h 11 min
Bit rate : 6 259 b/s
Count of elements : 1027
Stream size : 5.87 MiB (0%)
Language : Danish
Default : No
Forced : No

Text #8
ID : 12
Format : VobSub
Muxing mode : zlib
Codec ID : S_VOBSUB
Codec ID/Info : Picture based subtitle format used on DVDs
Duration : 2 h 6 min
Bit rate : 5 915 b/s
Count of elements : 1004
Stream size : 5.33 MiB (0%)
Language : Dutch
Default : No
Forced : No

Text #9
ID : 13
Format : VobSub
Muxing mode : zlib
Codec ID : S_VOBSUB
Codec ID/Info : Picture based subtitle format used on DVDs
Duration : 2 h 11 min
Bit rate : 13.6 kb/s
Count of elements : 1513
Stream size : 12.9 MiB (0%)
Title : Commentary 1
Language : Dutch
Default : No
Forced : No

Text #10
ID : 14
Format : VobSub
Muxing mode : zlib
Codec ID : S_VOBSUB
Codec ID/Info : Picture based subtitle format used on DVDs
Duration : 2 h 11 min
Bit rate : 7 163 b/s
Count of elements : 1014
Stream size : 6.72 MiB (0%)
Language : Finnish
Default : No
Forced : No

Text #11
ID : 15
Format : VobSub
Muxing mode : zlib
Codec ID : S_VOBSUB
Codec ID/Info : Picture based subtitle format used on DVDs
Duration : 2 h 11 min
Bit rate : 6 200 b/s
Count of elements : 1042
Stream size : 5.82 MiB (0%)
Language : French
Default : No
Forced : No

Text #12
ID : 16
Format : VobSub
Muxing mode : zlib
Codec ID : S_VOBSUB
Codec ID/Info : Picture based subtitle format used on DVDs
Duration : 2 h 12 min
Bit rate : 14.1 kb/s
Count of elements : 1574
Stream size : 13.4 MiB (0%)
Title : Commentary 1
Language : French
Default : No
Forced : No

Text #13
ID : 17
Format : VobSub
Muxing mode : zlib
Codec ID : S_VOBSUB
Codec ID/Info : Picture based subtitle format used on DVDs
Duration : 2 h 11 min
Bit rate : 5 029 b/s
Count of elements : 553
Stream size : 4.74 MiB (0%)
Title : Commentary 2
Language : French
Default : No
Forced : No

Text #14
ID : 18
Format : VobSub
Muxing mode : zlib
Codec ID : S_VOBSUB
Codec ID/Info : Picture based subtitle format used on DVDs
Duration : 2 h 11 min
Bit rate : 7 941 b/s
Count of elements : 1130
Stream size : 7.45 MiB (0%)
Language : German
Default : No
Forced : No

Text #15
ID : 19
Format : VobSub
Muxing mode : zlib
Codec ID : S_VOBSUB
Codec ID/Info : Picture based subtitle format used on DVDs
Duration : 45 min 5 s
Bit rate : 85 b/s
Count of elements : 4
Stream size : 28.1 KiB (0%)
Title : Forced
Language : German
Default : No
Forced : No

Text #16
ID : 20
Format : VobSub
Muxing mode : zlib
Codec ID : S_VOBSUB
Codec ID/Info : Picture based subtitle format used on DVDs
Duration : 2 h 12 min
Bit rate : 14.5 kb/s
Count of elements : 1576
Stream size : 13.7 MiB (0%)
Title : Commentary 1
Language : German
Default : No
Forced : No

Text #17
ID : 21
Format : VobSub
Muxing mode : zlib
Codec ID : S_VOBSUB
Codec ID/Info : Picture based subtitle format used on DVDs
Duration : 2 h 6 min
Bit rate : 7 204 b/s
Count of elements : 1035
Stream size : 6.50 MiB (0%)
Language : Italian
Default : No
Forced : No

Text #18
ID : 22
Format : VobSub
Muxing mode : zlib
Codec ID : S_VOBSUB
Codec ID/Info : Picture based subtitle format used on DVDs
Duration : 2 h 12 min
Bit rate : 14.7 kb/s
Count of elements : 1572
Stream size : 13.8 MiB (0%)
Title : Commentary 1
Language : Italian
Default : No
Forced : No

Text #19
ID : 23
Format : VobSub
Muxing mode : zlib
Codec ID : S_VOBSUB
Codec ID/Info : Picture based subtitle format used on DVDs
Duration : 2 h 6 min
Bit rate : 4 061 b/s
Count of elements : 1105
Stream size : 3.66 MiB (0%)
Language : Japanese
Default : No
Forced : No

Text #20
ID : 24
Format : VobSub
Muxing mode : zlib
Codec ID : S_VOBSUB
Codec ID/Info : Picture based subtitle format used on DVDs
Duration : 2 h 11 min
Bit rate : 8 290 b/s
Count of elements : 1407
Stream size : 7.83 MiB (0%)
Title : Commentary 1
Language : Japanese
Default : No
Forced : No

Text #21
ID : 25
Format : VobSub
Muxing mode : zlib
Codec ID : S_VOBSUB
Codec ID/Info : Picture based subtitle format used on DVDs
Duration : 2 h 11 min
Bit rate : 6 817 b/s
Count of elements : 990
Stream size : 6.39 MiB (0%)
Language : Norwegian Bokmal
Default : No
Forced : No

Text #22
ID : 26
Format : VobSub
Muxing mode : zlib
Codec ID : S_VOBSUB
Codec ID/Info : Picture based subtitle format used on DVDs
Duration : 2 h 11 min
Bit rate : 7 092 b/s
Count of elements : 1402
Stream size : 6.65 MiB (0%)
Language : Polish
Default : No
Forced : No

Text #23
ID : 27
Format : VobSub
Muxing mode : zlib
Codec ID : S_VOBSUB
Codec ID/Info : Picture based subtitle format used on DVDs
Duration : 2 h 11 min
Bit rate : 6 302 b/s
Count of elements : 1351
Stream size : 5.91 MiB (0%)
Language : Spanish
Default : No
Forced : No

Text #24
ID : 28
Format : VobSub
Muxing mode : zlib
Codec ID : S_VOBSUB
Codec ID/Info : Picture based subtitle format used on DVDs
Duration : 2 h 12 min
Bit rate : 14.8 kb/s
Count of elements : 1572
Stream size : 14.0 MiB (0%)
Title : Commentary 1
Language : Spanish
Default : No
Forced : No

Text #25
ID : 29
Format : VobSub
Muxing mode : zlib
Codec ID : S_VOBSUB
Codec ID/Info : Picture based subtitle format used on DVDs
Duration : 2 h 6 min
Bit rate : 5 893 b/s
Count of elements : 999
Stream size : 5.31 MiB (0%)
Language : Swedish
Default : No
Forced : No

Menu
00:00:00.000 : en:Chapter 01
00:02:21.099 : en:Chapter 02
00:03:57.487 : en:Chapter 03
00:05:11.936 : en:Chapter 04
00:06:09.827 : en:Chapter 05
00:07:50.928 : en:Chapter 06
00:11:57.842 : en:Chapter 07
00:13:17.922 : en:Chapter 08
00:14:03.092 : en:Chapter 09
00:14:17.982 : en:Chapter 10
00:16:58.308 : en:Chapter 11
00:21:00.467 : en:Chapter 12
00:22:41.610 : en:Chapter 13
00:24:53.241 : en:Chapter 14
00:26:50.108 : en:Chapter 15
00:28:49.936 : en:Chapter 16
00:33:24.460 : en:Chapter 17
00:34:08.337 : en:Chapter 18
00:35:26.415 : en:Chapter 19
00:38:18.337 : en:Chapter 20
00:42:33.217 : en:Chapter 21
00:43:24.143 : en:Chapter 22
00:45:18.424 : en:Chapter 23
00:47:59.293 : en:Chapter 24
00:52:39.030 : en:Chapter 25
00:56:49.155 : en:Chapter 26
00:57:55.221 : en:Chapter 27
00:58:38.723 : en:Chapter 28
01:00:49.479 : en:Chapter 29
01:01:38.861 : en:Chapter 30
01:04:18.396 : en:Chapter 31
01:07:43.893 : en:Chapter 32
01:11:58.605 : en:Chapter 33
01:12:58.290 : en:Chapter 34
01:19:14.708 : en:Chapter 35
01:26:10.665 : en:Chapter 36
01:28:49.782 : en:Chapter 37
01:29:27.236 : en:Chapter 38
01:30:06.651 : en:Chapter 39
01:35:43.195 : en:Chapter 40
01:38:57.973 : en:Chapter 41
01:41:26.747 : en:Chapter 42
01:45:24.234 : en:Chapter 43
01:47:44.708 : en:Chapter 44
01:48:10.734 : en:Chapter 45
01:49:49.958 : en:Chapter 46
01:51:09.412 : en:Chapter 47
01:54:16.015 : en:Chapter 48
01:58:22.512 : en:Chapter 49
01:59:44.260 : en:Chapter 50
02:02:00.604 : en:Chapter 51
02:03:48.671 : en:Chapter 52
02:05:13.130 : en:Chapter 53
02:06:28.122 : en:Chapter 54
02:07:19.423 : en:Chapter 55

 

You may also like...

3 Responses

  1. user121 says:

    error message of – 503 Service Unavailable
    No server is available to handle this request.

  2. user121 says:

    Thanks

Leave a Reply

Your email address will not be published. Required fields are marked *