Curb Your Enthusiasm All Season | 720p & 1080p WEBRip x265-BvS

The unscripted Curb Your Enthusiasm brings the off-kilter comic vision of Larry David, who plays himself in a parallel universe in which he can’t seem to do anything right, and, by his standards, neither can anyone else.

Links: HOMEPAGE – TV.com

Note: In English with English Selectable Subtitles

DOWNLOAD

VIP (GOOGLE DRIVE)

This content is reserved for registered users. Sign up here o login to be able to see it.

FREE

  • SEASON 1: 720p x265 (ONLY VIP)
  • SEASON 2: 720p x265 (ONLY VIP)
  • SEASON 3: 720p x265 (ONLY VIP)
  • SEASON 4: 720p x265 (ONLY VIP)
  • SEASON 5: 720p x265 (ONLY VIP)
  • SEASON 6: 720p x265 (ONLY VIP)
  • SEASON 7: 720p x265 (ONLY VIP)
  • SEASON 8: 720p x265 (ONLY VIP)
  • SEASON 9: 720p x265 (ONLY VIP)

NFO

WEBRip.x264-ION10

 

720p.x265

General
Unique ID : 288659617296152393584940648233556318008 (0xD929D1F00411E11032CA130463791738)
Complete name : Curb.Your.Enthusiasm.S01E00.720p.WEB-DL.x265.mkv
Format : Matroska
Format version : Version 4
File size : 302 MiB
Duration : 59 min 0 s
Overall bit rate : 716 kb/s
Movie name : S01E00 – Larry David – Curb Your Enthusiasm
Encoded date : UTC 2020-07-18 15:17:41
Writing application : mkvmerge v44.0.0 (‘Domino’) 64-bit
Writing library : libebml v1.3.10 + libmatroska v1.5.2 / Lavf58.29.100

Video
ID : 1
Format : HEVC
Format/Info : High Efficiency Video Coding
Format profile : [email protected]@Main
Codec ID : V_MPEGH/ISO/HEVC
Duration : 59 min 0 s
Bit rate : 651 kb/s
Width : 576 pixels
Height : 432 pixels
Display aspect ratio : 4:3
Frame rate mode : Constant
Frame rate : 29.970 (30000/1001) FPS
Color space : YUV
Chroma subsampling : 4:2:0
Bit depth : 8 bits
Bits/(Pixel*Frame) : 0.087
Stream size : 275 MiB (91%)
Default : Yes
Forced : No
Color range : Limited
Color primaries : BT.601 NTSC
Transfer characteristics : BT.709
Matrix coefficients : BT.601

Audio
ID : 2
Format : AAC LC SBR
Format/Info : Advanced Audio Codec Low Complexity with Spectral Band Replication
Commercial name : HE-AAC
Format settings : Explicit
Codec ID : A_AAC-2
Duration : 59 min 0 s
Bit rate : 62.7 kb/s
Channel(s) : 2 channels
Channel layout : L R
Sampling rate : 48.0 kHz
Frame rate : 23.438 FPS (2048 SPF)
Compression mode : Lossy
Delay relative to video : -28 ms
Stream size : 26.5 MiB (9%)
Default : Yes
Forced : No

1080p.x265-BvS

 

Leave a Reply

Your email address will not be published. Required fields are marked *